VERSION	0.00.00	1.03.00
FES_MODE	0
BPM_DEF	 95.500	191.000	191.000	 61.000
MET_DEF	4	4
RESOLUTION	384
CLK_DEF	384
COMPATIBLE_CODE	MA2

BPM	0	0	 95.500
BPM	8	96	 87.000
BPM	8	288	 78.000
BPM	9	96	 69.000
BPM	9	288	 61.000
BPM	10	0	 63.000
BPM	10	96	191.000
MET	0	0	4	4

STR	2	0	3
SI_	2	0	3	96	192	7
TAP	3	0	6
TAP	3	192	5
STR	4	0	4
SCR	4	0	4	96	480	3
HLD	6	0	2	192
TAP	6	192	3
HLD	7	0	5	192
TAP	7	192	4
HLD	8	0	3	96
HLD	8	0	4	96
TAP	8	192	3
TAP	8	192	4
TAP	8	288	2
TAP	8	288	5
STR	9	0	2
SLL	9	0	2	96	192	4
STR	9	0	5
SLR	9	0	5	96	192	3
TAP	10	288	3
TAP	10	288	4
TAP	11	0	5
TAP	11	96	5
TAP	11	192	4
TAP	11	192	5
TAP	11	288	4
TAP	11	288	5
TAP	12	0	6
TAP	12	96	7
TAP	12	192	0
TAP	12	288	1
TAP	13	0	2
TAP	13	96	2
TAP	13	192	2
TAP	13	192	3
TAP	13	288	2
TAP	13	288	3
TAP	14	0	1
TAP	14	96	0
TAP	14	192	7
TAP	14	288	6
HLD	15	0	5	192
TAP	15	192	4
TAP	15	288	3
HLD	16	0	2	192
TAP	16	192	3
TAP	16	288	4
TAP	17	0	5
TAP	17	96	4
TAP	17	96	5
TAP	17	192	2
TAP	17	288	2
TAP	17	288	3
TAP	18	0	4
TAP	18	96	3
TAP	18	96	4
TAP	18	192	2
TAP	18	192	5
TAP	19	0	6
TAP	19	96	6
TAP	19	192	6
TAP	19	192	7
TAP	19	288	6
TAP	19	288	7
TAP	20	0	5
TAP	20	96	4
TAP	20	192	3
TAP	20	288	2
TAP	21	0	1
TAP	21	96	1
TAP	21	192	0
TAP	21	192	1
TAP	21	288	0
TAP	21	288	1
TAP	22	0	2
TAP	22	96	3
TAP	22	192	4
TAP	22	288	5
HLD	23	0	6	192
TAP	23	192	7
TAP	23	288	0
HLD	24	0	1	192
TAP	24	192	0
TAP	24	288	7
TAP	25	0	0
TAP	25	0	7
TAP	25	96	1
TAP	25	96	6
TAP	25	192	2
TAP	25	192	5
TAP	25	288	3
TAP	25	288	4
TAP	26	0	4
TAP	26	48	4
TAP	26	96	4
TAP	26	192	3
TAP	26	240	3
TAP	26	288	3
TAP	27	0	4
TAP	27	0	5
BRK	27	96	3
BRK	27	96	6
TAP	28	0	5
TAP	28	96	5
TAP	28	192	4
TAP	28	288	4
TAP	29	0	2
TAP	29	0	3
BRK	29	96	1
BRK	29	96	4
TAP	30	0	2
TAP	30	96	2
TAP	30	192	3
TAP	30	288	3
TAP	31	0	4
TAP	31	96	4
TAP	31	192	5
TAP	31	288	5
TAP	32	0	6
TAP	32	96	7
TAP	32	192	0
TAP	32	288	1
HLD	33	0	2	96
HLD	33	0	3	96
HLD	33	192	4	96
HLD	33	192	5	96
TAP	34	0	2
TAP	34	96	3
TAP	34	192	4
TAP	34	288	5
TAP	35	0	6
TAP	35	0	7
BRK	35	96	0
BRK	35	96	5
TAP	36	0	6
TAP	36	96	6
TAP	36	192	7
TAP	36	288	7
TAP	37	0	0
TAP	37	0	1
BRK	37	96	2
BRK	37	96	7
TAP	38	0	1
TAP	38	96	1
TAP	38	192	0
TAP	38	288	0
TAP	39	0	7
TAP	39	96	7
TAP	39	192	6
TAP	39	288	6
TAP	40	0	5
TAP	40	96	4
TAP	40	192	3
TAP	40	288	2
HLD	41	0	0	96
HLD	41	0	1	96
HLD	41	192	6	96
HLD	41	192	7	96
TAP	42	0	1
TAP	42	96	0
TAP	42	192	7
TAP	42	288	6
STR	43	0	5
SI_	43	0	5	96	144	0
STR	44	0	1
SI_	44	0	1	96	144	5
STR	45	0	6
SI_	45	0	6	96	144	3
TAP	46	0	2
TAP	46	192	2
TAP	46	192	3
STR	47	0	4
SCR	47	0	4	96	144	7
STR	48	0	0
SCR	48	0	0	96	144	3
STR	49	0	4
SI_	49	0	4	96	144	7
TAP	50	0	0
TAP	50	192	0
TAP	50	192	7
TAP	51	0	0
STR	51	0	1
SI_	51	0	1	96	144	4
TAP	52	0	5
TAP	52	96	5
TAP	52	192	4
TAP	52	192	5
STR	53	0	6
SI_	53	0	6	96	144	3
TAP	53	0	7
TAP	54	0	2
TAP	54	96	2
TAP	54	192	2
TAP	54	192	3
TAP	55	0	0
STR	55	0	1
SI_	55	0	1	96	144	4
TAP	56	0	5
TAP	56	96	5
TAP	56	192	4
TAP	56	192	5
STR	57	0	6
SI_	57	0	6	96	144	3
TAP	57	0	7
TAP	58	0	2
TAP	58	96	3
TAP	58	96	4
TAP	58	192	3
TAP	58	192	4
BRK	58	288	2
BRK	58	288	5
HLD	59	0	5	384
HLD	60	0	4	384
HLD	61	0	3	384
TAP	62	0	2
TAP	62	192	2
TAP	62	192	3
HLD	63	0	1	384
HLD	64	0	0	384
HLD	65	0	7	384
TAP	66	0	6
TAP	66	192	0
TAP	66	192	7
TAP	67	0	6
TAP	67	96	6
TAP	67	192	6
TAP	67	192	7
TAP	68	0	1
TAP	68	96	1
TAP	68	192	0
TAP	68	192	1
TAP	69	0	6
TAP	69	96	6
TAP	69	192	6
TAP	69	192	7
TAP	70	0	0
TAP	70	96	0
TAP	70	192	1
TAP	70	192	7
TAP	71	0	2
TAP	71	96	3
TAP	71	192	4
TAP	71	288	5
TAP	72	0	6
TAP	72	96	7
TAP	72	192	0
TAP	72	288	1
TAP	73	0	2
TAP	73	48	2
TAP	73	96	2
TAP	73	192	3
TAP	73	240	3
TAP	73	288	3
TAP	74	0	4
TAP	74	48	4
TAP	74	96	4
TAP	74	192	5
TAP	74	240	5
TAP	74	288	5
STR	75	0	3
SCL	75	0	3	96	144	0
STR	75	0	4
SCR	75	0	4	96	144	7
TAP	76	0	6
TAP	76	96	6
TAP	76	96	7
TAP	76	192	6
TAP	76	288	6
TAP	76	288	7
TAP	77	0	5
TAP	77	96	4
TAP	77	192	3
TAP	77	288	2
TAP	78	0	1
TAP	78	96	0
TAP	78	96	1
TAP	78	192	1
TAP	78	288	0
TAP	78	288	1
TAP	79	0	2
TAP	79	96	3
TAP	79	192	4
TAP	79	288	5
HLD	80	0	6	96
TAP	80	96	7
TAP	80	192	0
TAP	80	192	5
HLD	81	0	1	96
TAP	81	96	0
TAP	81	192	2
TAP	81	192	7
TAP	82	0	6
TAP	82	96	6
TAP	82	96	7
TAP	82	192	1
TAP	82	288	0
TAP	82	288	1
TAP	83	0	7
TAP	83	96	0
TAP	83	96	7
TAP	83	192	1
TAP	83	192	6
TAP	84	0	2
TAP	84	96	2
TAP	84	96	3
TAP	84	192	2
TAP	84	288	2
TAP	84	288	3
TAP	85	0	1
TAP	85	96	0
TAP	85	192	7
TAP	85	288	6
TAP	86	0	5
TAP	86	96	4
TAP	86	96	5
TAP	86	192	5
TAP	86	288	4
TAP	86	288	5
TAP	87	0	6
TAP	87	96	7
TAP	87	192	0
TAP	87	288	1
HLD	88	0	2	96
TAP	88	96	3
TAP	88	192	1
TAP	88	192	4
HLD	89	0	5	96
TAP	89	96	4
TAP	89	192	3
TAP	89	192	6
TAP	90	0	2
TAP	90	96	2
TAP	90	96	3
TAP	90	192	5
TAP	90	288	4
TAP	90	288	5
TAP	91	0	3
TAP	91	48	3
TAP	91	96	3
BRK	91	192	2
BRK	91	192	5
TAP	92	0	6
TAP	92	96	6
TAP	92	96	7
TAP	92	192	6
TAP	92	288	6
TAP	92	288	7
TAP	93	0	4
TAP	93	0	5
TAP	93	96	2
TAP	93	96	3
TAP	93	192	0
TAP	93	192	1
TAP	93	288	6
TAP	93	288	7
TAP	94	0	5
TAP	94	96	4
TAP	94	96	5
TAP	94	192	5
TAP	94	288	4
TAP	94	288	5
TAP	95	0	6
TAP	95	0	7
TAP	95	96	0
TAP	95	96	1
TAP	95	192	2
TAP	95	192	3
TAP	95	288	4
TAP	95	288	5
TAP	96	0	3
HLD	96	0	6	192
TAP	96	192	7
TAP	96	288	0
HLD	97	0	1	192
TAP	97	192	0
TAP	97	288	7
TAP	98	0	6
TAP	98	96	6
TAP	98	96	7
TAP	98	192	5
TAP	98	288	4
TAP	98	288	5
TAP	99	0	2
TAP	99	96	2
TAP	99	96	3
BRK	99	192	1
BRK	99	192	4
TAP	100	0	0
TAP	100	0	7
TAP	100	96	6
TAP	100	144	6
TAP	100	192	6
TAP	100	288	5
TAP	100	336	5
TAP	101	0	5
TAP	101	96	4
TAP	101	144	4
TAP	101	192	4
TAP	101	288	3
TAP	101	288	5
TAP	102	0	2
TAP	102	0	4
TAP	102	96	1
TAP	102	144	1
TAP	102	192	1
TAP	102	288	0
TAP	102	336	0
TAP	102	336	7
TAP	103	48	1
TAP	103	48	6
TAP	103	144	2
TAP	103	144	5
TAP	103	240	3
TAP	103	240	4
TAP	103	336	2
TAP	103	336	5
TAP	104	0	2
HLD	104	0	5	192
TAP	104	192	4
TAP	104	288	3
HLD	105	0	2	192
TAP	105	192	3
TAP	105	288	4
TAP	106	0	5
TAP	106	96	6
TAP	106	192	7
TAP	106	288	0
TAP	107	0	0
TAP	107	0	7
TAP	107	48	0
TAP	107	48	7
TAP	107	96	0
TAP	107	96	7
TAP	107	192	1
TAP	107	192	6
TAP	107	240	1
TAP	107	240	6
TAP	107	288	1
TAP	107	288	6
TAP	108	0	2
TAP	108	0	5
BST	108	96	3
SXR	108	96	3	96	576	0
BST	108	96	4
SXL	108	96	4	96	576	7

T_REC_TAP	366
T_REC_BRK	14
T_REC_XTP	0
T_REC_HLD	30
T_REC_XHO	0
T_REC_STR	16
T_REC_BST	2
T_REC_XST	0
T_REC_TTP	0
T_REC_THO	0
T_REC_SLD	18
T_REC_ALL	446
T_NUM_TAP	382
T_NUM_BRK	16
T_NUM_HLD	30
T_NUM_SLD	18
T_NUM_ALL	446
T_JUDGE_TAP	398
T_JUDGE_HLD	128
T_JUDGE_SLD	18
T_JUDGE_ALL	544
TTM_EACHPAIRS	105
TTM_SCR_TAP	191000
TTM_SCR_BRK	41600
TTM_SCR_HLD	30000
TTM_SCR_SLD	27000
TTM_SCR_ALL	289600
TTM_SCR_S	279400
TTM_SCR_SS	288000
TTM_RAT_ACV	10055

