VERSION	0.00.00	1.03.00
FES_MODE	0
BPM_DEF	 95.500	191.000	191.000	 61.000
MET_DEF	4	4
RESOLUTION	384
CLK_DEF	384
COMPATIBLE_CODE	MA2

BPM	0	0	 95.500
BPM	8	96	 87.000
BPM	8	288	 78.000
BPM	9	96	 69.000
BPM	9	288	 61.000
BPM	10	0	 63.000
BPM	10	96	191.000
MET	0	0	4	4

TAP	6	0	3
TAP	6	192	3
TAP	7	0	3
TAP	8	0	4
TAP	8	192	4
HLD	9	0	3	444
HLD	9	0	4	444
TAP	11	0	3
TAP	11	192	3
TAP	12	0	3
TAP	12	192	3
TAP	13	0	2
TAP	13	192	2
TAP	14	0	2
HLD	15	0	1	384
TAP	17	0	1
TAP	17	192	1
TAP	18	0	0
TAP	18	0	1
TAP	19	0	7
TAP	19	192	7
TAP	20	0	7
TAP	21	0	6
TAP	21	192	6
TAP	22	0	6
HLD	23	0	5	384
TAP	25	0	4
TAP	25	192	4
TAP	26	0	3
TAP	26	0	4
TAP	27	0	4
TAP	27	192	4
TAP	28	0	5
TAP	29	0	6
TAP	29	192	6
TAP	30	0	7
TAP	31	0	0
TAP	31	192	0
TAP	32	0	1
TAP	33	0	2
TAP	33	192	2
BRK	34	0	3
BRK	34	0	4
TAP	35	0	2
TAP	35	192	2
TAP	36	0	1
TAP	37	0	0
TAP	37	192	0
TAP	38	0	7
TAP	39	0	6
TAP	39	192	6
TAP	40	0	5
TAP	41	0	4
TAP	41	192	4
BRK	42	0	3
BRK	42	0	4
STR	43	0	3
SI_	43	0	3	96	288	0
STR	45	0	7
SI_	45	0	7	96	288	4
STR	47	0	3
SI_	47	0	3	96	288	7
STR	49	0	6
SI_	49	0	6	96	288	2
TAP	51	0	1
TAP	51	192	1
TAP	52	0	0
TAP	52	0	1
TAP	53	0	2
TAP	53	192	2
TAP	54	0	2
TAP	54	0	3
TAP	55	0	4
TAP	55	192	4
TAP	56	0	4
TAP	56	0	5
TAP	57	0	6
TAP	57	192	6
BRK	58	0	6
BRK	58	0	7
HLD	59	0	6	384
HLD	59	0	7	384
HLD	61	0	4	384
HLD	61	0	5	384
HLD	63	0	2	384
HLD	63	0	3	384
HLD	65	0	0	384
HLD	65	0	1	384
TAP	67	0	0
TAP	67	192	0
TAP	68	0	1
TAP	68	192	1
TAP	69	0	2
TAP	69	192	2
TAP	70	0	2
TAP	70	0	3
TAP	71	0	4
TAP	71	192	4
TAP	72	0	5
TAP	72	192	5
TAP	73	0	6
TAP	73	192	6
TAP	74	0	0
TAP	74	0	7
TAP	74	192	0
TAP	74	192	7
BRK	75	0	0
BRK	75	0	7
TAP	76	0	7
TAP	76	96	7
TAP	76	192	7
TAP	77	0	6
TAP	77	96	6
TAP	77	192	6
TAP	78	0	5
TAP	78	96	5
TAP	78	192	5
TAP	79	0	3
TAP	79	0	4
TAP	79	96	3
TAP	79	96	4
TAP	79	192	3
TAP	79	192	4
TAP	80	0	2
TAP	80	96	2
TAP	80	192	2
TAP	81	0	1
TAP	81	96	1
TAP	81	192	1
TAP	82	0	0
TAP	82	96	0
TAP	82	192	0
TAP	83	0	0
TAP	83	0	7
TAP	83	96	0
TAP	83	96	7
TAP	83	192	0
TAP	83	192	7
TAP	84	0	1
TAP	84	96	1
TAP	84	192	1
TAP	85	0	2
TAP	85	96	2
TAP	85	192	2
TAP	85	192	3
TAP	86	0	4
TAP	86	96	4
TAP	86	192	4
TAP	87	0	5
TAP	87	96	5
TAP	87	192	4
TAP	87	192	5
TAP	88	0	6
TAP	88	96	6
TAP	88	192	6
TAP	88	192	7
TAP	89	0	1
TAP	89	96	1
TAP	89	192	0
TAP	89	192	1
TAP	90	0	7
TAP	90	96	7
TAP	90	192	0
TAP	90	288	0
BRK	91	0	0
BRK	91	0	7
TAP	92	0	7
TAP	92	96	7
TAP	92	192	6
TAP	92	288	6
TAP	93	0	5
TAP	93	96	5
TAP	93	192	4
TAP	93	192	5
TAP	94	0	3
TAP	94	96	3
TAP	94	192	2
TAP	94	288	2
TAP	95	0	1
TAP	95	96	1
TAP	95	192	0
TAP	95	192	1
TAP	96	0	0
TAP	96	96	0
TAP	96	192	1
TAP	96	288	1
TAP	97	0	2
TAP	97	96	2
TAP	97	192	2
TAP	97	192	3
TAP	98	0	4
TAP	98	96	4
TAP	98	192	5
TAP	98	288	5
TAP	99	0	6
TAP	99	96	6
TAP	99	192	6
TAP	99	192	7
TAP	100	0	7
TAP	100	96	7
TAP	100	192	6
TAP	100	288	6
TAP	101	0	5
TAP	101	96	5
TAP	101	192	4
TAP	101	288	4
TAP	102	0	3
TAP	102	96	3
TAP	102	192	2
TAP	102	288	2
TAP	103	0	1
TAP	103	96	1
TAP	103	192	0
TAP	103	192	1
TAP	104	0	6
TAP	104	0	7
TAP	104	96	6
TAP	104	96	7
TAP	104	192	6
TAP	104	192	7
TAP	105	0	0
TAP	105	0	1
TAP	105	96	0
TAP	105	96	1
TAP	105	192	0
TAP	105	192	1
TAP	106	0	7
TAP	106	96	7
TAP	106	192	0
TAP	106	288	0
TAP	107	0	0
TAP	107	0	7
TAP	107	96	0
TAP	107	96	7
TAP	107	192	1
TAP	107	192	6
TAP	107	288	1
TAP	107	288	6
TAP	108	0	2
TAP	108	0	5
BRK	108	96	2
BRK	108	96	5

T_REC_TAP	210
T_REC_BRK	12
T_REC_XTP	0
T_REC_HLD	12
T_REC_XHO	0
T_REC_STR	4
T_REC_BST	0
T_REC_XST	0
T_REC_TTP	0
T_REC_THO	0
T_REC_SLD	4
T_REC_ALL	242
T_NUM_TAP	214
T_NUM_BRK	12
T_NUM_HLD	12
T_NUM_SLD	4
T_NUM_ALL	242
T_JUDGE_TAP	226
T_JUDGE_HLD	118
T_JUDGE_SLD	4
T_JUDGE_ALL	348
TTM_EACHPAIRS	45
TTM_SCR_TAP	107000
TTM_SCR_BRK	31200
TTM_SCR_HLD	12000
TTM_SCR_SLD	6000
TTM_SCR_ALL	156200
TTM_SCR_S	150350
TTM_SCR_SS	155000
TTM_RAT_ACV	10077

