VERSION	0.00.00	1.03.00
FES_MODE	0
BPM_DEF	132.000	132.000	132.000	132.000
MET_DEF	4	4
RESOLUTION	384
CLK_DEF	384
COMPATIBLE_CODE	MA2

BPM	0	0	132.000
MET	0	0	4	4

STR	1	288	4
SI_	1	288	4	96	192	0
TAP	2	336	4
TAP	3	0	4
TAP	3	32	3
TAP	3	64	2
STR	3	96	4
SCL	3	96	4	96	48	1
STR	3	128	2
SCL	3	128	2	96	48	7
STR	3	160	0
SCL	3	160	0	96	48	5
STR	3	288	3
SI_	3	288	3	96	192	7
TAP	3	336	3
TAP	4	336	3
TAP	5	0	3
TAP	5	32	4
TAP	5	64	5
STR	5	96	3
SCR	5	96	3	96	48	6
STR	5	128	5
SCR	5	128	5	96	48	0
STR	5	160	7
SCR	5	160	7	96	48	2
STR	5	288	4
SI_	5	288	4	96	192	0
TAP	5	336	4
TAP	6	336	4
TAP	7	0	4
TAP	7	32	3
TAP	7	64	2
STR	7	96	4
SCL	7	96	4	96	48	1
STR	7	128	2
SCL	7	128	2	96	48	7
STR	7	160	0
SCL	7	160	0	96	48	5
STR	7	288	3
SI_	7	288	3	96	192	7
TAP	7	336	3
TAP	8	336	3
TAP	9	0	3
TAP	9	32	5
TAP	9	64	7
TAP	9	96	3
TAP	9	128	5
TAP	9	160	7
TAP	9	192	1
TAP	9	224	3
TAP	9	256	5
TAP	9	288	3
STR	9	288	7
SCL	9	288	7	96	48	4
TAP	10	0	2
STR	10	0	7
SCR	10	0	7	96	48	2
TAP	10	96	4
STR	10	96	7
SCL	10	96	7	96	48	4
TAP	10	192	3
TAP	10	192	7
STR	10	288	0
SCR	10	288	0	96	48	3
TAP	10	288	4
STR	11	0	0
SCL	11	0	0	96	48	5
TAP	11	0	5
STR	11	96	0
SCR	11	96	0	96	48	3
TAP	11	96	3
TAP	11	192	0
TAP	11	192	4
TAP	11	288	3
STR	11	288	7
SCL	11	288	7	96	48	4
TAP	12	0	2
STR	12	0	7
SCR	12	0	7	96	48	2
TAP	12	96	4
STR	12	96	7
SCL	12	96	7	96	48	4
TAP	12	192	3
TAP	12	192	7
STR	12	288	0
SCR	12	288	0	96	48	3
TAP	12	288	4
STR	13	0	0
SCL	13	0	0	96	48	5
TAP	13	0	5
STR	13	96	0
SCR	13	96	0	96	48	3
TAP	13	96	3
TAP	13	192	0
TAP	13	192	4
STR	13	288	3
SCL	13	288	3	96	48	0
TAP	13	288	7
STR	14	0	3
SCR	14	0	3	96	48	6
TAP	14	0	6
TAP	14	96	0
STR	14	96	3
SCL	14	96	3	96	48	0
TAP	14	192	3
TAP	14	192	7
TAP	14	288	0
STR	14	288	4
SCR	14	288	4	96	48	7
TAP	15	0	1
STR	15	0	4
SCL	15	0	4	96	48	1
STR	15	96	4
SCR	15	96	4	96	48	7
TAP	15	96	7
TAP	15	192	0
TAP	15	192	4
STR	15	288	3
SCL	15	288	3	96	48	0
TAP	15	288	7
STR	16	0	3
SCR	16	0	3	96	48	6
TAP	16	0	6
TAP	16	96	0
STR	16	96	3
SCL	16	96	3	96	48	0
TAP	16	192	3
TAP	16	192	7
STR	16	288	0
SCR	16	288	0	96	48	3
STR	16	288	4
SCR	16	288	4	96	48	7
TAP	17	0	0
TAP	17	0	4
TAP	17	96	2
TAP	17	96	6
BRK	17	192	0
BRK	17	192	4
BRK	17	224	1
BRK	17	224	5
BRK	17	256	2
BRK	17	256	6
BST	17	288	3
SXR	17	288	3	96	192	5
BRK	17	288	7
TAP	18	0	5
TAP	18	72	6
TAP	18	144	7
TAP	18	240	6
STR	18	288	6
SXL	18	288	6	96	192	3
TAP	19	0	3
TAP	19	72	2
TAP	19	144	1
TAP	19	240	2
STR	19	288	2
SXR	19	288	2	96	192	4
TAP	20	0	4
TAP	20	72	5
TAP	20	144	6
TAP	20	240	5
STR	20	288	5
SCL	20	288	5	96	96	2
TAP	21	0	2
TAP	21	72	1
HLD	21	144	0	96
TAP	21	240	4
STR	21	288	4
SXL	21	288	4	96	192	2
TAP	22	0	2
TAP	22	72	1
TAP	22	144	0
TAP	22	240	1
STR	22	288	1
SXR	22	288	1	96	192	4
TAP	23	0	4
TAP	23	72	5
TAP	23	144	6
TAP	23	240	5
STR	23	288	5
SXL	23	288	5	96	192	3
TAP	24	0	3
TAP	24	72	2
TAP	24	144	1
TAP	24	240	2
STR	24	288	2
SCR	24	288	2	96	96	5
TAP	25	0	5
TAP	25	72	6
HLD	25	144	7	96
TAP	25	240	1
STR	25	288	1
SI_	25	288	1	96	240	5
HLD	26	0	6	336
TAP	26	336	5
TAP	27	0	5
TAP	27	32	4
TAP	27	64	3
STR	27	96	5
SCL	27	96	5	96	96	2
STR	27	128	4
SCL	27	128	4	96	96	1
STR	27	160	3
SCL	27	160	3	96	96	0
STR	27	288	6
SI_	27	288	6	96	240	2
HLD	28	0	1	336
TAP	28	336	2
TAP	29	0	2
TAP	29	32	3
TAP	29	64	4
STR	29	96	2
SCR	29	96	2	96	96	5
STR	29	128	3
SCR	29	128	3	96	96	6
STR	29	160	4
SCR	29	160	4	96	96	7
STR	29	288	1
SI_	29	288	1	96	240	5
TAP	29	336	1
HLD	30	0	6	336
TAP	30	336	7
TAP	31	0	7
TAP	31	32	0
TAP	31	64	1
STR	31	96	7
SCR	31	96	7	96	96	2
STR	31	128	0
SCR	31	128	0	96	96	3
STR	31	160	1
SCR	31	160	1	96	96	4
STR	31	288	6
SI_	31	288	6	96	240	2
HLD	32	0	1	336
TAP	32	336	0
TAP	33	0	0
TAP	33	32	7
TAP	33	64	6
STR	33	96	0
SCL	33	96	0	96	96	5
STR	33	128	7
SCL	33	128	7	96	96	4
STR	33	160	6
SCL	33	160	6	96	96	3
TAP	33	336	1
BRK	34	0	1
BRK	34	32	2
BRK	34	64	3
BRK	34	96	4
BRK	34	128	5
BRK	34	160	6
BST	34	192	0
SI_	34	192	0	96	48	4
BST	34	192	7
SI_	34	192	7	96	48	3
BRK	34	224	1
BRK	34	224	6
BRK	34	256	2
BRK	34	256	5
TAP	35	0	2
STR	35	0	5
SCL	35	0	5	96	48	2
STR	35	96	1
SI_	35	96	1	96	48	5
TAP	35	96	5
TAP	35	192	1
STR	35	192	4
SI_	35	192	4	96	48	0
STR	35	288	3
SCL	35	288	3	96	48	0
TAP	35	288	4
STR	36	0	3
SI_	36	0	3	96	48	5
STR	36	96	0
SXL	36	96	0	96	48	2
SXR	36	96	0	96	48	6
TAP	36	96	3
TAP	36	192	0
STR	36	288	0
SI_	36	288	0	96	48	4
STR	36	288	7
SI_	36	288	7	96	48	3
STR	37	0	0
SCR	37	0	0	96	48	3
TAP	37	0	7
TAP	37	96	0
STR	37	96	5
SI_	37	96	5	96	48	1
STR	37	192	2
SI_	37	192	2	96	48	5
TAP	37	192	5
TAP	37	288	2
STR	37	288	7
SXR	37	288	7	96	192	4
STR	38	0	3
SI_	38	0	3	96	48	1
TAP	38	0	7
TAP	38	96	3
STR	38	192	0
SI_	38	192	0	96	48	3
TAP	38	288	0
STR	38	288	4
SI_	38	288	4	96	48	7
STR	39	0	1
SLR	39	0	1	96	48	5
TAP	39	0	4
TAP	39	96	1
STR	39	96	6
SV_	39	96	6	96	48	3
STR	39	192	2
SCL	39	192	2	96	48	7
TAP	39	192	6
TAP	39	288	2
STR	39	288	5
SXR	39	288	5	96	192	2
STR	40	0	1
SI_	40	0	1	96	48	7
TAP	40	0	5
TAP	40	96	1
STR	40	192	6
SI_	40	192	6	96	48	0
STR	40	288	3
SLR	40	288	3	96	48	7
TAP	40	288	6
STR	41	0	0
SI_	41	0	0	96	48	2
TAP	41	0	3
STR	41	96	0
SI_	41	96	0	96	48	5
STR	41	192	0
SI_	41	192	0	96	48	3
TAP	41	288	0
TAP	41	288	6
TAP	42	0	5
TAP	42	32	6
TAP	42	64	7
TAP	42	96	0
TAP	42	128	1
TAP	42	160	2
BRK	42	192	3
BRK	42	192	4
BRK	42	224	2
BRK	42	224	5
BRK	42	256	1
BRK	42	256	6
BST	42	288	0
SI_	42	288	0	96	48	4
BRK	42	288	7
STR	43	0	0
SI_	43	0	0	96	48	2
TAP	43	0	6
STR	43	96	0
SI_	43	96	0	96	48	3
TAP	43	96	7
STR	43	192	0
SI_	43	192	0	96	48	5
TAP	43	192	1
STR	43	288	0
SI_	43	288	0	96	48	4
TAP	43	288	2
STR	44	0	0
SI_	44	0	0	96	48	2
TAP	44	0	6
STR	44	96	0
SI_	44	96	0	96	48	3
TAP	44	96	7
STR	44	192	0
SI_	44	192	0	96	32	5
TAP	44	192	1
STR	44	288	0
SI_	44	288	0	96	48	4
TAP	44	288	2
STR	45	0	0
SI_	45	0	0	96	48	2
TAP	45	0	6
STR	45	96	0
SI_	45	96	0	96	48	3
TAP	45	96	7
STR	45	192	0
SI_	45	192	0	96	48	5
TAP	45	192	1
STR	45	288	0
SI_	45	288	0	96	48	4
TAP	45	288	2
STR	46	0	0
SI_	46	0	0	96	48	2
TAP	46	0	6
STR	46	96	0
SI_	46	96	0	96	48	3
TAP	46	96	7
TAP	46	192	0
TAP	46	192	1
TAP	46	288	3
STR	46	288	4
SI_	46	288	4	96	48	0
TAP	47	0	2
STR	47	0	4
SI_	47	0	4	96	48	6
TAP	47	96	3
STR	47	96	4
SI_	47	96	4	96	48	7
STR	47	192	4
SI_	47	192	4	96	48	1
TAP	47	192	5
STR	47	288	4
SI_	47	288	4	96	48	0
TAP	47	288	6
TAP	48	0	2
STR	48	0	4
SI_	48	0	4	96	48	6
TAP	48	96	3
STR	48	96	4
SI_	48	96	4	96	48	7
STR	48	192	4
SI_	48	192	4	96	32	1
TAP	48	192	5
STR	48	288	4
SI_	48	288	4	96	48	0
TAP	48	288	6
TAP	49	0	2
STR	49	0	4
SI_	49	0	4	96	48	6
TAP	49	96	3
STR	49	96	4
SI_	49	96	4	96	48	7
TAP	49	192	4
TAP	49	192	5
TAP	49	288	1
TAP	49	288	6
TAP	50	0	2
TAP	50	32	1
TAP	50	64	0
TAP	50	96	7
TAP	50	128	6
TAP	50	160	5
BRK	50	192	0
BRK	50	192	4
BRK	50	224	1
BRK	50	224	5
BRK	50	256	2
BRK	50	256	6
BST	50	288	3
SCL	50	288	3	96	48	0
BST	50	288	7
SCL	50	288	7	96	48	4
STR	51	0	3
SUR	51	0	3	96	48	7
STR	51	0	7
SUR	51	0	7	96	48	3
STR	51	96	3
SCL	51	96	3	96	48	0
STR	51	96	7
SCL	51	96	7	96	48	4
STR	51	288	0
SCR	51	288	0	96	48	3
STR	51	288	4
SCR	51	288	4	96	48	7
STR	52	0	0
SUL	52	0	0	96	48	4
STR	52	0	4
SUL	52	0	4	96	48	0
STR	52	96	0
SCR	52	96	0	96	48	3
STR	52	96	4
SCR	52	96	4	96	48	7
STR	52	288	3
SCL	52	288	3	96	48	0
STR	52	288	7
SCL	52	288	7	96	48	4
STR	53	0	3
SUR	53	0	3	96	48	7
STR	53	0	7
SUR	53	0	7	96	48	3
STR	53	96	3
SCL	53	96	3	96	48	0
STR	53	96	7
SCL	53	96	7	96	48	4
STR	53	288	0
SCR	53	288	0	96	48	3
STR	53	288	4
SCR	53	288	4	96	48	7
STR	54	0	0
SUL	54	0	0	96	48	4
STR	54	0	4
SUL	54	0	4	96	48	0
STR	54	96	0
SCR	54	96	0	96	48	3
STR	54	96	4
SCR	54	96	4	96	48	7
STR	54	288	2
SCL	54	288	2	96	48	7
STR	54	288	6
SCL	54	288	6	96	48	3
STR	55	0	2
SUR	55	0	2	96	48	6
STR	55	0	6
SUR	55	0	6	96	48	2
STR	55	96	2
SCL	55	96	2	96	48	7
STR	55	96	6
SCL	55	96	6	96	48	3
STR	55	288	1
SCR	55	288	1	96	48	4
STR	55	288	5
SCR	55	288	5	96	48	0
STR	56	0	1
SUL	56	0	1	96	48	5
STR	56	0	5
SUL	56	0	5	96	48	1
STR	56	96	1
SCR	56	96	1	96	48	4
STR	56	96	5
SCR	56	96	5	96	48	0
STR	56	288	2
SCL	56	288	2	96	48	7
STR	56	288	6
SCL	56	288	6	96	48	3
STR	57	0	2
SUR	57	0	2	96	48	6
STR	57	0	6
SUR	57	0	6	96	48	2
STR	57	96	2
SCL	57	96	2	96	48	7
STR	57	96	6
SCL	57	96	6	96	48	3
STR	57	288	0
SCR	57	288	0	96	48	3
STR	57	288	4
SCR	57	288	4	96	48	7
TAP	58	0	0
TAP	58	0	4
TAP	58	96	2
TAP	58	96	6
TAP	58	192	0
TAP	58	192	4
TAP	58	224	1
TAP	58	224	5
TAP	58	256	2
TAP	58	256	6
STR	58	288	3
SCR	58	288	3	96	48	5
STR	58	288	7
SI_	58	288	7	96	48	5
STR	59	0	3
SCL	59	0	3	96	48	1
STR	59	0	7
SI_	59	0	7	96	48	1
STR	59	96	3
SCR	59	96	3	96	48	5
STR	59	96	7
SI_	59	96	7	96	48	5
STR	59	192	3
SCL	59	192	3	96	48	1
STR	59	192	7
SI_	59	192	7	96	48	1
STR	59	288	3
SCR	59	288	3	96	48	5
STR	59	288	7
SI_	59	288	7	96	48	5
STR	60	0	3
SCL	60	0	3	96	48	1
STR	60	0	7
SI_	60	0	7	96	48	1
STR	60	96	3
SV_	60	96	3	96	48	5
STR	60	96	7
SV_	60	96	7	96	48	5
STR	60	288	0
SI_	60	288	0	96	48	2
STR	60	288	4
SCL	60	288	4	96	48	2
STR	61	0	0
SI_	61	0	0	96	48	6
STR	61	0	4
SCR	61	0	4	96	48	6
STR	61	96	0
SI_	61	96	0	96	48	2
STR	61	96	4
SCL	61	96	4	96	48	2
STR	61	192	0
SI_	61	192	0	96	48	6
STR	61	192	4
SCR	61	192	4	96	48	6
STR	61	288	0
SI_	61	288	0	96	48	2
STR	61	288	4
SCL	61	288	4	96	48	2
STR	62	0	0
SI_	62	0	0	96	48	6
STR	62	0	4
SCR	62	0	4	96	48	6
STR	62	96	0
SV_	62	96	0	96	48	2
STR	62	96	4
SV_	62	96	4	96	48	2
STR	62	288	3
SXR	62	288	3	96	192	0
STR	62	288	5
SI_	62	288	5	96	48	7
TAP	63	0	5
STR	63	96	7
SI_	63	96	7	96	48	3
TAP	63	192	7
STR	63	288	0
SXL	63	288	0	96	192	3
STR	63	288	6
SI_	63	288	6	96	48	4
TAP	64	0	6
STR	64	96	4
SI_	64	96	4	96	48	0
TAP	64	192	4
BRK	64	288	7
STR	65	0	3
SCR	65	0	3	96	96	6
STR	65	32	4
SCR	65	32	4	96	96	7
STR	65	64	5
SCR	65	64	5	96	96	0
STR	65	192	3
SCR	65	192	3	96	96	6
STR	65	224	4
SCR	65	224	4	96	96	7
STR	65	256	5
SCR	65	256	5	96	96	0
TAP	66	0	3
TAP	66	32	4
TAP	66	64	5
STR	66	96	3
SCL	66	96	3	96	96	0
STR	66	128	2
SCL	66	128	2	96	96	7
STR	66	160	1
SCL	66	160	1	96	96	6
TAP	66	192	4
TAP	66	224	4
TAP	66	256	4
BRK	66	288	4

T_REC_TAP	198
T_REC_BRK	32
T_REC_XTP	0
T_REC_HLD	6
T_REC_XHO	0
T_REC_STR	194
T_REC_BST	6
T_REC_XST	0
T_REC_TTP	0
T_REC_THO	0
T_REC_SLD	201
T_REC_ALL	637
T_NUM_TAP	392
T_NUM_BRK	38
T_NUM_HLD	6
T_NUM_SLD	201
T_NUM_ALL	637
T_JUDGE_TAP	430
T_JUDGE_HLD	32
T_JUDGE_SLD	201
T_JUDGE_ALL	663
TTM_EACHPAIRS	136
TTM_SCR_TAP	196000
TTM_SCR_BRK	98800
TTM_SCR_HLD	6000
TTM_SCR_SLD	301500
TTM_SCR_ALL	602300
TTM_SCR_S	580550
TTM_SCR_SS	598500
TTM_RAT_ACV	10063

