VERSION	0.00.00	1.03.00
FES_MODE	0
BPM_DEF	132.000	132.000	132.000	132.000
MET_DEF	4	4
RESOLUTION	384
CLK_DEF	384
COMPATIBLE_CODE	MA2

BPM	0	0	132.000
MET	0	0	4	4
CLK	0	0
CLK	0	96
CLK	0	192
CLK	0	288

STR	1	288	5
SLR	1	288	5	96	216	3
TAP	2	0	4
TAP	2	288	2
TAP	2	288	4
TAP	3	0	3
TAP	3	32	3
TAP	3	64	3
TAP	3	96	4
TAP	3	128	4
TAP	3	160	4
TAP	3	192	3
STR	3	288	2
SLL	3	288	2	96	216	4
TAP	4	0	3
TAP	4	288	3
TAP	4	288	5
TAP	5	0	4
TAP	5	32	4
TAP	5	64	4
TAP	5	96	3
TAP	5	128	3
TAP	5	160	3
TAP	5	192	4
TAP	5	288	2
STR	5	288	6
SLL	5	288	6	96	216	0
TAP	6	0	4
TAP	6	288	1
TAP	6	288	7
TAP	7	0	0
TAP	7	32	0
TAP	7	64	0
TAP	7	96	7
TAP	7	128	7
TAP	7	160	7
TAP	7	192	0
STR	7	288	1
SLR	7	288	1	96	216	7
TAP	7	288	5
TAP	8	0	3
TAP	8	288	0
TAP	8	288	6
TAP	9	0	7
TAP	9	32	7
TAP	9	64	7
TAP	9	96	0
TAP	9	128	0
TAP	9	160	0
TAP	9	192	7
TAP	9	224	7
TAP	9	256	7
BRK	9	288	0
HLD	10	0	1	72
HLD	10	72	2	72
TAP	10	144	3
TAP	10	192	3
TAP	10	288	2
TAP	10	288	4
TAP	11	0	5
TAP	11	48	5
TAP	11	96	4
TAP	11	96	6
TAP	11	192	2
TAP	11	240	2
TAP	11	288	1
TAP	11	288	3
HLD	12	0	6	192
TAP	12	96	5
HLD	12	192	4	192
TAP	12	288	3
HLD	13	0	2	192
TAP	13	96	1
TAP	13	192	0
TAP	13	240	0
TAP	13	288	1
TAP	13	288	7
HLD	14	0	6	72
HLD	14	72	5	72
TAP	14	144	4
TAP	14	192	4
TAP	14	288	3
TAP	14	288	5
TAP	15	0	2
TAP	15	48	2
TAP	15	96	1
TAP	15	96	3
TAP	15	192	5
TAP	15	240	5
TAP	15	288	4
TAP	15	288	6
HLD	16	0	1	192
TAP	16	96	2
HLD	16	192	3	192
TAP	16	288	4
HLD	17	0	5	96
TAP	17	96	6
TAP	17	192	0
TAP	17	192	7
TAP	17	224	0
TAP	17	224	7
TAP	17	256	0
TAP	17	256	7
BRK	17	288	1
BRK	17	288	6
STR	18	0	4
SXL	18	0	4	96	192	3
TAP	18	192	2
TAP	18	288	2
STR	19	0	1
SXR	19	0	1	96	192	3
TAP	19	192	3
TAP	19	288	4
STR	20	0	5
SXL	20	0	5	96	192	3
TAP	20	192	3
TAP	20	288	2
TAP	21	0	1
TAP	21	0	3
TAP	21	96	0
TAP	21	96	4
TAP	21	192	2
TAP	21	192	6
TAP	21	240	2
TAP	21	240	6
TAP	21	288	2
TAP	21	288	6
STR	22	0	3
SXR	22	0	3	96	192	4
TAP	22	192	5
TAP	22	288	5
STR	23	0	6
SXL	23	0	6	96	192	4
TAP	23	192	4
TAP	23	288	3
STR	24	0	2
SXR	24	0	2	96	192	4
TAP	24	192	4
TAP	24	288	5
HLD	25	0	4	48
HLD	25	0	5	48
HLD	25	96	2	48
HLD	25	96	3	48
TAP	25	192	0
TAP	25	192	7
TAP	25	288	3
STR	25	288	4
SCR	25	288	4	96	192	7
HLD	26	0	3	384
TAP	27	0	0
TAP	27	32	0
TAP	27	64	0
TAP	27	96	1
TAP	27	128	1
TAP	27	160	1
TAP	27	192	0
STR	27	288	3
SCL	27	288	3	96	192	0
TAP	27	288	7
HLD	28	0	4	384
TAP	29	0	7
TAP	29	32	7
TAP	29	64	7
TAP	29	96	6
TAP	29	128	6
TAP	29	160	6
TAP	29	192	7
TAP	29	288	0
STR	29	288	4
SCR	29	288	4	96	192	7
HLD	30	0	3	384
TAP	31	0	0
TAP	31	32	0
TAP	31	64	0
TAP	31	96	1
TAP	31	128	1
TAP	31	160	1
TAP	31	192	0
TAP	31	288	3
TAP	31	288	7
HLD	32	0	1	96
HLD	32	0	4	96
HLD	32	192	3	96
HLD	32	192	6	96
TAP	33	0	4
TAP	33	32	4
TAP	33	64	4
TAP	33	96	3
TAP	33	128	3
TAP	33	160	3
TAP	33	192	4
TAP	33	288	2
TAP	33	288	5
TAP	34	0	6
TAP	34	32	6
TAP	34	64	6
TAP	34	96	1
TAP	34	128	1
TAP	34	160	1
TAP	34	192	0
TAP	34	192	7
TAP	34	224	0
TAP	34	224	7
TAP	34	256	0
TAP	34	256	7
TAP	34	288	1
STR	34	288	6
SI_	34	288	6	96	48	2
BRK	35	0	0
TAP	35	96	1
TAP	35	96	3
TAP	35	192	2
TAP	35	216	3
TAP	35	264	1
TAP	35	264	4
TAP	35	312	0
TAP	35	312	5
TAP	35	360	6
TAP	35	360	7
TAP	36	0	6
STR	36	0	7
SI_	36	0	7	96	48	3
STR	36	192	0
SI_	36	192	0	96	48	4
TAP	36	192	1
TAP	37	0	5
TAP	37	96	4
TAP	37	96	6
TAP	37	192	5
TAP	37	216	4
TAP	37	264	3
TAP	37	264	6
TAP	37	312	2
TAP	37	312	7
STR	37	360	0
SUL	37	360	0	96	144	5
STR	37	360	1
SXL	37	360	1	96	144	4
STR	38	288	6
SI_	38	288	6	96	48	2
BRK	39	0	0
TAP	39	96	1
TAP	39	96	3
TAP	39	192	2
TAP	39	216	3
TAP	39	264	1
TAP	39	264	4
TAP	39	312	0
TAP	39	312	5
TAP	39	360	6
TAP	39	360	7
TAP	40	0	6
STR	40	0	7
SI_	40	0	7	96	48	3
STR	40	192	0
SI_	40	192	0	96	48	4
TAP	40	192	1
TAP	41	0	5
TAP	41	96	4
TAP	41	96	6
TAP	41	192	5
TAP	41	216	4
TAP	41	264	3
TAP	41	264	6
TAP	41	312	2
TAP	41	312	7
TAP	41	360	0
TAP	41	360	1
TAP	42	0	0
TAP	42	0	1
TAP	42	96	2
TAP	42	96	3
TAP	42	192	4
TAP	42	224	4
TAP	42	256	4
BRK	42	288	3
BRK	42	288	5
HLD	43	0	0	24
HLD	43	0	7	24
HLD	43	96	3	24
HLD	43	96	4	24
HLD	43	192	0	24
HLD	43	192	7	24
HLD	43	288	3	24
HLD	43	288	4	24
HLD	44	0	0	24
HLD	44	0	7	24
HLD	44	96	3	24
HLD	44	96	4	24
HLD	44	192	0	24
HLD	44	192	7	24
HLD	44	288	3	24
HLD	44	288	4	24
HLD	45	0	0	24
HLD	45	0	7	24
HLD	45	96	3	24
HLD	45	96	4	24
HLD	45	192	0	24
HLD	45	192	7	24
HLD	45	288	3	24
HLD	45	288	4	24
HLD	46	0	0	24
HLD	46	0	7	24
HLD	46	96	3	24
HLD	46	96	4	24
HLD	46	192	0	24
HLD	46	192	7	24
TAP	46	288	3
TAP	46	288	4
HLD	47	0	0	48
HLD	47	0	7	48
HLD	47	96	3	48
HLD	47	96	4	48
HLD	47	192	0	48
HLD	47	192	7	48
HLD	47	288	3	48
HLD	47	288	4	48
HLD	48	0	0	48
HLD	48	0	7	48
HLD	48	96	3	48
HLD	48	96	4	48
HLD	48	192	0	48
HLD	48	192	7	48
HLD	48	288	3	48
HLD	48	288	4	48
HLD	49	0	0	48
HLD	49	0	7	48
HLD	49	96	3	48
HLD	49	96	4	48
HLD	49	192	0	48
HLD	49	192	7	48
TAP	49	288	3
TAP	49	288	4
TAP	50	0	0
TAP	50	0	7
TAP	50	32	0
TAP	50	32	7
TAP	50	64	0
TAP	50	64	7
TAP	50	96	0
TAP	50	96	7
TAP	50	192	3
TAP	50	192	4
TAP	50	224	3
TAP	50	224	4
TAP	50	256	3
TAP	50	256	4
BRK	50	288	2
BRK	50	288	5
TAP	51	0	3
TAP	51	0	6
TAP	51	48	5
TAP	51	72	4
TAP	51	120	4
TAP	51	144	6
STR	51	192	3
SI_	51	192	3	96	48	0
TAP	51	288	5
TAP	52	0	6
TAP	52	48	7
TAP	52	96	0
TAP	52	96	5
TAP	52	192	1
TAP	52	240	0
TAP	52	288	2
TAP	52	288	7
STR	53	0	1
SUR	53	0	1	96	48	5
TAP	53	96	0
STR	53	192	6
SUL	53	192	6	96	48	2
TAP	53	288	7
STR	54	0	1
SUR	54	0	1	96	48	5
TAP	54	96	0
TAP	54	192	7
TAP	54	240	7
TAP	54	288	0
TAP	54	288	6
TAP	55	0	1
TAP	55	0	5
TAP	55	48	2
TAP	55	72	3
TAP	55	120	3
TAP	55	144	1
STR	55	192	4
SI_	55	192	4	96	48	7
TAP	55	288	2
TAP	56	0	1
TAP	56	48	0
TAP	56	96	2
TAP	56	96	7
TAP	56	192	6
TAP	56	240	7
TAP	56	288	0
TAP	56	288	5
STR	57	0	1
SUR	57	0	1	96	48	5
TAP	57	96	0
STR	57	192	6
SUL	57	192	6	96	48	2
TAP	57	288	7
HLD	58	0	1	96
TAP	58	96	0
TAP	58	192	7
TAP	58	224	7
TAP	58	256	7
TAP	58	288	0
TAP	58	288	6
BRK	59	0	1
BRK	59	0	5
TAP	59	48	6
TAP	59	72	7
TAP	59	120	7
TAP	59	144	5
STR	59	192	0
SI_	59	192	0	96	48	4
TAP	59	288	6
TAP	60	0	5
TAP	60	48	4
TAP	60	96	3
TAP	60	96	6
TAP	60	192	2
TAP	60	240	3
TAP	60	288	1
TAP	60	288	4
STR	61	0	2
SCL	61	0	2	96	48	7
TAP	61	96	3
STR	61	192	5
SCR	61	192	5	96	48	0
TAP	61	288	4
STR	62	0	2
SCL	62	0	2	96	48	7
TAP	62	96	3
TAP	62	192	4
TAP	62	240	4
TAP	62	288	3
TAP	62	288	5
BRK	63	0	2
BRK	63	0	6
TAP	63	48	1
TAP	63	72	0
TAP	63	120	0
TAP	63	144	2
STR	63	192	7
SI_	63	192	7	96	48	3
TAP	63	288	1
BRK	64	0	2
TAP	64	48	3
TAP	64	96	1
TAP	64	96	4
TAP	64	192	5
TAP	64	240	4
TAP	64	288	3
TAP	64	288	6
TAP	65	0	0
TAP	65	0	1
TAP	65	32	0
TAP	65	32	1
TAP	65	64	0
TAP	65	64	1
TAP	65	192	6
TAP	65	192	7
TAP	65	224	6
TAP	65	224	7
TAP	65	256	6
TAP	65	256	7
TAP	66	0	3
TAP	66	0	4
TAP	66	32	3
TAP	66	32	4
TAP	66	64	3
TAP	66	64	4
TAP	66	96	3
TAP	66	96	4
TAP	66	128	3
TAP	66	128	4
TAP	66	160	3
TAP	66	160	4
TAP	66	192	2
TAP	66	192	5
TAP	66	224	2
TAP	66	224	5
TAP	66	256	2
TAP	66	256	5
BRK	66	288	2
BRK	66	288	5

T_REC_TAP	332
T_REC_BRK	16
T_REC_XTP	0
T_REC_HLD	74
T_REC_XHO	0
T_REC_STR	33
T_REC_BST	0
T_REC_XST	0
T_REC_TTP	0
T_REC_THO	0
T_REC_SLD	33
T_REC_ALL	488
T_NUM_TAP	365
T_NUM_BRK	16
T_NUM_HLD	74
T_NUM_SLD	33
T_NUM_ALL	488
T_JUDGE_TAP	381
T_JUDGE_HLD	120
T_JUDGE_SLD	33
T_JUDGE_ALL	534
TTM_EACHPAIRS	126
TTM_SCR_TAP	182500
TTM_SCR_BRK	41600
TTM_SCR_HLD	74000
TTM_SCR_SLD	49500
TTM_SCR_ALL	347600
TTM_SCR_S	335650
TTM_SCR_SS	346000
TTM_RAT_ACV	10046

