VERSION	0.00.00	1.03.00
FES_MODE	0
BPM_DEF	132.000	132.000	132.000	132.000
MET_DEF	4	4
RESOLUTION	384
CLK_DEF	384
COMPATIBLE_CODE	MA2

BPM	0	0	132.000
MET	0	0	4	4
CLK	0	0
CLK	0	96
CLK	0	192
CLK	0	288

STR	2	0	5
SCL	2	0	5	96	144	2
TAP	3	0	1
TAP	3	96	1
TAP	3	192	1
TAP	3	192	3
STR	4	0	2
SCR	4	0	2	96	144	5
TAP	5	0	6
TAP	5	96	6
TAP	5	192	4
TAP	5	192	6
STR	6	0	6
SI_	6	0	6	96	144	2
TAP	7	0	1
TAP	7	96	1
TAP	7	192	0
TAP	7	192	1
STR	8	0	1
SI_	8	0	1	96	144	5
TAP	9	0	6
TAP	9	96	6
TAP	9	192	0
TAP	9	192	7
TAP	10	0	1
TAP	10	96	1
TAP	10	192	0
TAP	10	288	0
TAP	11	0	7
TAP	11	96	7
TAP	11	192	0
TAP	11	192	6
TAP	12	0	5
TAP	12	96	5
TAP	12	192	4
TAP	12	192	5
TAP	13	0	3
TAP	13	96	3
TAP	13	96	4
TAP	13	192	2
TAP	13	192	5
TAP	14	0	6
TAP	14	96	6
TAP	14	192	7
TAP	14	288	7
TAP	15	0	0
TAP	15	96	0
TAP	15	192	1
TAP	15	192	7
TAP	16	0	2
TAP	16	96	2
TAP	16	192	2
TAP	16	192	3
TAP	17	0	3
TAP	17	0	4
TAP	17	96	2
TAP	17	96	5
BRK	17	192	1
BRK	17	192	6
HLD	18	0	5	192
TAP	18	192	4
HLD	19	0	2	192
TAP	19	192	3
HLD	20	0	5	192
TAP	20	192	4
HLD	21	0	2	96
HLD	21	0	3	96
TAP	21	192	2
TAP	21	192	3
HLD	22	0	1	192
TAP	22	192	0
HLD	23	0	6	192
TAP	23	192	7
HLD	24	0	1	192
TAP	24	192	0
HLD	25	0	0	96
HLD	25	0	7	96
TAP	25	192	1
TAP	25	192	6
STR	26	0	5
SCR	26	0	5	96	144	0
TAP	27	0	1
TAP	27	96	1
TAP	27	192	0
TAP	27	192	1
STR	28	0	2
SCL	28	0	2	96	144	7
TAP	29	0	6
TAP	29	96	6
TAP	29	192	6
TAP	29	192	7
STR	30	0	5
SI_	30	0	5	96	144	0
TAP	31	0	1
TAP	31	96	1
TAP	31	192	0
TAP	31	192	1
STR	32	0	2
SI_	32	0	2	96	144	7
TAP	33	0	6
TAP	33	96	6
TAP	33	192	6
TAP	33	192	7
TAP	34	0	0
TAP	34	0	7
TAP	34	96	0
TAP	34	96	7
TAP	34	192	1
TAP	34	192	6
BRK	35	0	5
TAP	35	96	5
TAP	35	192	4
TAP	35	192	5
TAP	35	288	4
TAP	35	288	5
TAP	36	0	6
TAP	36	96	7
TAP	36	192	0
TAP	36	192	6
TAP	37	0	1
TAP	37	96	1
TAP	37	192	0
TAP	37	192	1
TAP	37	288	0
TAP	37	288	1
TAP	38	0	2
TAP	38	96	3
TAP	38	192	3
TAP	38	192	4
TAP	39	0	2
TAP	39	96	2
TAP	39	192	2
TAP	39	192	3
TAP	39	288	2
TAP	39	288	3
TAP	40	0	1
TAP	40	96	0
TAP	40	192	1
TAP	40	192	7
TAP	41	0	6
TAP	41	96	6
TAP	41	192	6
TAP	41	192	7
TAP	41	288	6
TAP	41	288	7
TAP	42	0	5
TAP	42	96	3
TAP	42	96	4
BRK	42	192	2
BRK	42	192	5
TAP	43	0	1
TAP	43	96	0
TAP	43	96	1
TAP	43	192	1
TAP	43	288	0
TAP	43	288	1
TAP	44	0	2
TAP	44	96	3
TAP	44	192	2
TAP	44	192	4
TAP	45	0	5
TAP	45	96	4
TAP	45	96	5
TAP	45	192	5
TAP	45	288	4
TAP	45	288	5
TAP	46	0	6
TAP	46	96	7
TAP	46	192	0
TAP	46	192	7
TAP	47	0	6
TAP	47	96	6
TAP	47	96	7
TAP	47	192	6
TAP	47	288	6
TAP	47	288	7
TAP	48	0	5
TAP	48	96	4
TAP	48	192	3
TAP	48	192	5
TAP	49	0	2
TAP	49	96	2
TAP	49	96	3
TAP	49	192	2
TAP	49	288	2
TAP	49	288	3
TAP	50	0	1
TAP	50	96	0
TAP	50	96	7
TAP	50	192	1
TAP	50	192	6
BRK	51	0	5
TAP	51	96	4
TAP	51	96	6
TAP	51	192	5
TAP	51	240	5
TAP	51	288	5
TAP	52	0	3
TAP	52	96	3
TAP	52	96	4
TAP	52	192	2
TAP	52	240	2
TAP	52	288	2
HLD	53	0	1	96
TAP	53	96	0
HLD	53	192	6	96
TAP	53	288	7
HLD	54	0	5	96
TAP	54	96	4
TAP	54	192	3
TAP	54	192	6
TAP	55	0	2
TAP	55	96	1
TAP	55	96	3
TAP	55	192	2
TAP	55	240	2
TAP	55	288	2
TAP	56	0	4
TAP	56	96	3
TAP	56	96	4
TAP	56	192	5
TAP	56	240	5
TAP	56	288	5
HLD	57	0	6	96
TAP	57	96	7
HLD	57	192	1	96
TAP	57	288	0
HLD	58	0	2	96
TAP	58	96	3
BRK	58	192	1
BRK	58	192	4
TAP	59	0	5
TAP	59	96	4
TAP	59	96	6
TAP	59	192	5
TAP	59	240	5
TAP	59	288	5
TAP	60	0	3
TAP	60	96	3
TAP	60	96	4
TAP	60	192	2
TAP	60	240	2
TAP	60	288	2
HLD	61	0	1	96
TAP	61	96	0
HLD	61	192	6	96
TAP	61	288	7
HLD	62	0	5	96
TAP	62	96	4
TAP	62	192	3
TAP	62	192	6
BRK	63	0	2
TAP	63	96	1
TAP	63	96	3
TAP	63	192	2
TAP	63	240	2
TAP	63	288	2
BRK	64	0	4
TAP	64	96	3
TAP	64	96	4
TAP	64	192	5
TAP	64	240	5
TAP	64	288	5
HLD	65	0	6	96
HLD	65	0	7	96
HLD	65	192	0	96
HLD	65	192	1	96
TAP	66	0	0
TAP	66	0	7
TAP	66	96	1
TAP	66	96	6
TAP	66	192	2
TAP	66	192	5
BRK	66	288	3
BRK	66	288	4

T_REC_TAP	224
T_REC_BRK	12
T_REC_XTP	0
T_REC_HLD	23
T_REC_XHO	0
T_REC_STR	8
T_REC_BST	0
T_REC_XST	0
T_REC_TTP	0
T_REC_THO	0
T_REC_SLD	8
T_REC_ALL	275
T_NUM_TAP	232
T_NUM_BRK	12
T_NUM_HLD	23
T_NUM_SLD	8
T_NUM_ALL	275
T_JUDGE_TAP	244
T_JUDGE_HLD	58
T_JUDGE_SLD	8
T_JUDGE_ALL	310
TTM_EACHPAIRS	67
TTM_SCR_TAP	116000
TTM_SCR_BRK	31200
TTM_SCR_HLD	23000
TTM_SCR_SLD	12000
TTM_SCR_ALL	182200
TTM_SCR_S	175600
TTM_SCR_SS	181000
TTM_RAT_ACV	10066

