VERSION	0.00.00	1.03.00
FES_MODE	0
BPM_DEF	132.000	132.000	132.000	132.000
MET_DEF	4	4
RESOLUTION	384
CLK_DEF	384
COMPATIBLE_CODE	MA2

BPM	0	0	132.000
MET	0	0	4	4

HLD	2	0	7	192
TAP	3	0	7
HLD	4	0	0	192
TAP	5	0	0
HLD	6	0	7	192
TAP	7	0	7
TAP	7	192	7
HLD	8	0	0	192
TAP	9	0	0
BRK	9	192	0
TAP	10	0	7
TAP	10	192	7
TAP	11	0	7
TAP	12	0	6
TAP	12	192	6
TAP	13	0	6
TAP	14	0	5
TAP	14	192	5
TAP	15	0	5
TAP	16	0	4
TAP	16	192	4
HLD	17	0	4	192
TAP	18	0	3
TAP	18	192	3
TAP	19	0	3
TAP	19	192	3
TAP	20	0	2
TAP	20	192	2
TAP	21	0	2
TAP	22	0	1
TAP	22	192	1
TAP	23	0	1
TAP	23	192	1
TAP	24	0	0
TAP	24	192	0
TAP	25	0	0
STR	26	0	7
SI_	26	0	7	96	288	4
STR	28	0	0
SI_	28	0	0	96	288	3
STR	30	0	7
SI_	30	0	7	96	288	2
STR	32	0	0
SI_	32	0	0	96	288	5
TAP	34	0	0
TAP	34	0	7
BRK	34	192	0
BRK	34	192	7
TAP	35	0	0
TAP	35	96	0
TAP	35	192	0
TAP	36	0	1
TAP	36	96	1
TAP	36	192	1
TAP	37	0	2
TAP	37	96	2
TAP	37	192	2
TAP	38	0	3
TAP	38	0	4
TAP	38	96	3
TAP	38	96	4
TAP	38	192	3
TAP	38	192	4
TAP	39	0	4
TAP	39	96	4
TAP	39	192	4
TAP	40	0	5
TAP	40	96	5
TAP	40	192	5
TAP	41	0	6
TAP	41	96	6
TAP	41	192	6
TAP	42	0	0
TAP	42	0	7
TAP	42	96	0
TAP	42	96	7
BRK	42	192	0
BRK	42	192	7
TAP	43	0	7
TAP	43	96	7
TAP	43	192	7
TAP	43	288	7
TAP	44	0	6
TAP	44	96	6
TAP	44	192	6
TAP	44	288	6
TAP	45	0	5
TAP	45	96	5
TAP	45	192	5
TAP	45	288	5
TAP	46	0	3
TAP	46	0	4
TAP	46	96	3
TAP	46	96	4
TAP	46	192	3
TAP	46	192	4
TAP	46	288	3
TAP	46	288	4
TAP	47	0	3
TAP	47	96	3
TAP	47	192	3
TAP	47	288	3
TAP	48	0	2
TAP	48	96	2
TAP	48	192	2
TAP	48	288	2
TAP	49	0	1
TAP	49	96	1
TAP	49	192	1
TAP	49	288	1
TAP	50	0	0
TAP	50	96	0
BRK	50	192	0
BRK	50	192	7
TAP	51	0	0
TAP	51	192	0
TAP	52	0	1
TAP	52	192	0
TAP	52	192	1
TAP	53	0	2
TAP	53	192	2
TAP	54	0	3
TAP	54	96	3
TAP	54	192	3
TAP	54	192	4
TAP	55	0	4
TAP	55	192	4
TAP	56	0	5
TAP	56	192	4
TAP	56	192	5
TAP	57	0	6
TAP	57	192	6
TAP	58	0	7
TAP	58	96	7
BRK	58	192	0
BRK	58	192	7
TAP	59	0	6
TAP	59	192	5
TAP	60	0	4
TAP	60	0	5
TAP	60	192	3
TAP	61	0	2
TAP	61	192	3
TAP	62	0	4
TAP	62	192	4
TAP	62	192	5
TAP	63	0	3
TAP	63	192	2
TAP	64	0	1
TAP	64	192	0
TAP	64	192	7
TAP	65	0	1
TAP	65	0	6
TAP	65	192	2
TAP	65	192	5
TAP	66	0	3
TAP	66	96	3
TAP	66	192	4
BRK	66	288	3
BRK	66	288	4

T_REC_TAP	136
T_REC_BRK	11
T_REC_XTP	0
T_REC_HLD	5
T_REC_XHO	0
T_REC_STR	4
T_REC_BST	0
T_REC_XST	0
T_REC_TTP	0
T_REC_THO	0
T_REC_SLD	4
T_REC_ALL	160
T_NUM_TAP	140
T_NUM_BRK	11
T_NUM_HLD	5
T_NUM_SLD	4
T_NUM_ALL	160
T_JUDGE_TAP	151
T_JUDGE_HLD	20
T_JUDGE_SLD	4
T_JUDGE_ALL	175
TTM_EACHPAIRS	23
TTM_SCR_TAP	70000
TTM_SCR_BRK	28600
TTM_SCR_HLD	5000
TTM_SCR_SLD	6000
TTM_SCR_ALL	109600
TTM_SCR_S	105250
TTM_SCR_SS	108500
TTM_RAT_ACV	10101

