VERSION	0.00.00	1.03.00
FES_MODE	0
BPM_DEF	 90.000	 90.000	 90.000	 90.000
MET_DEF	4	4
RESOLUTION	384
CLK_DEF	384
COMPATIBLE_CODE	MA2

BPM	0	0	 90.000
MET	0	0	4	4

BRK	1	0	5
BRK	1	0	6
STR	1	4	4
SLL	1	4	4	96	188	5
STR	1	4	7
SLR	1	4	7	96	188	6
TAP	1	8	0
TAP	1	8	3
TAP	1	12	1
TAP	1	12	2
HLD	2	0	2	48
TAP	2	0	7
TAP	2	48	3
STR	2	72	1
SI_	2	72	1	96	24	4
TAP	2	120	0
TAP	2	144	0
TAP	2	168	1
STR	2	192	6
SCL	2	192	6	96	48	2
TAP	2	240	0
TAP	2	264	1
TAP	2	264	7
TAP	3	0	0
HLD	3	0	5	48
TAP	3	48	4
STR	3	72	6
SI_	3	72	6	96	24	3
TAP	3	120	7
TAP	3	144	7
TAP	3	168	6
STR	3	192	1
SCR	3	192	1	96	48	5
TAP	3	240	7
TAP	3	264	0
TAP	3	264	6
HLD	3	360	7	48
TAP	4	24	0
TAP	4	48	7
TAP	4	72	7
TAP	4	96	1
TAP	4	120	1
TAP	4	144	5
TAP	4	168	5
STR	4	192	3
SI_	4	192	3	96	24	1
STR	4	216	3
SI_	4	216	3	96	24	5
TAP	4	240	7
TAP	4	264	7
HLD	4	360	0	48
TAP	5	24	7
TAP	5	48	0
TAP	5	72	0
TAP	5	96	6
TAP	5	120	6
TAP	5	144	2
TAP	5	168	2
TAP	5	192	4
TAP	5	216	4
TAP	5	240	3
TAP	5	240	5
TAP	5	264	3
TAP	5	264	5
TAP	5	288	2
TAP	5	300	6
TAP	5	312	1
TAP	5	324	5
TAP	5	336	2
TAP	5	348	6
TAP	5	360	1
TAP	5	372	5
TAP	6	0	3
HLD	6	0	4	48
TAP	6	48	0
STR	6	72	6
SI_	6	72	6	96	24	3
TAP	6	72	7
TAP	6	120	0
TAP	6	144	0
TAP	6	168	6
STR	6	192	1
SCR	6	192	1	96	48	5
TAP	6	240	7
TAP	6	264	0
TAP	6	264	6
HLD	7	0	3	48
TAP	7	0	4
TAP	7	48	7
TAP	7	72	0
STR	7	72	1
SI_	7	72	1	96	24	4
TAP	7	120	7
TAP	7	144	7
TAP	7	168	1
STR	7	192	6
SCL	7	192	6	96	48	2
TAP	7	240	0
TAP	7	264	1
TAP	7	264	7
HLD	7	360	0	48
TAP	8	24	7
TAP	8	48	0
TAP	8	72	0
TAP	8	96	6
TAP	8	120	6
TAP	8	144	2
TAP	8	168	2
STR	8	192	4
SI_	8	192	4	96	24	6
STR	8	216	4
SI_	8	216	4	96	24	2
TAP	8	240	0
TAP	8	264	0
HLD	8	360	7	48
TAP	9	24	0
TAP	9	48	7
TAP	9	72	7
TAP	9	96	1
TAP	9	120	1
TAP	9	144	5
TAP	9	168	5
TAP	9	192	3
TAP	9	216	3
TAP	9	240	2
TAP	9	240	4
TAP	9	264	2
TAP	9	264	4
STR	9	288	1
SXR	9	288	1	96	288	6
STR	9	300	5
SXR	9	300	5	96	276	2
TAP	9	312	2
TAP	9	324	6
TAP	9	336	1
TAP	9	348	5
TAP	9	360	2
TAP	9	372	6
TAP	11	0	3
HLD	11	0	5	48
TAP	11	48	4
TAP	11	72	4
TAP	11	96	5
STR	11	144	6
SI_	11	144	6	96	24	4
TAP	11	168	3
TAP	11	216	3
TAP	11	240	6
TAP	11	288	2
TAP	11	312	2
TAP	11	336	3
HLD	12	0	2	48
TAP	12	0	4
TAP	12	48	3
TAP	12	72	3
TAP	12	96	2
STR	12	144	1
SI_	12	144	1	96	24	3
TAP	12	168	4
TAP	12	216	4
TAP	12	240	1
HLD	12	288	5	48
TAP	12	336	4
TAP	12	360	5
STR	13	0	3
SCL	13	0	3	96	48	0
TAP	13	0	6
TAP	13	48	4
TAP	13	48	5
TAP	13	96	6
TAP	13	144	7
STR	13	168	7
SCL	13	168	7	96	48	4
TAP	13	240	0
TAP	13	240	1
TAP	13	288	2
TAP	13	336	3
TAP	13	360	3
STR	14	0	2
SXR	14	0	2	96	96	3
HLD	14	0	4	96
TAP	14	144	5
HLD	14	168	5	72
TAP	14	240	4
STR	14	288	0
SI_	14	288	0	96	24	4
STR	14	288	7
SI_	14	288	7	96	24	3
TAP	14	300	1
TAP	14	300	6
HLD	14	312	2	48
HLD	14	312	5	48
TAP	15	96	3
TAP	15	96	4
TAP	15	144	5
HLD	15	168	4	72
TAP	15	168	6
HLD	15	240	3	72
TAP	15	312	1
TAP	15	360	2
TAP	15	360	5
TAP	16	0	3
TAP	16	0	4
TAP	16	48	2
TAP	16	48	5
STR	16	72	1
SCR	16	72	1	96	24	3
TAP	16	72	6
TAP	16	96	0
TAP	16	96	7
TAP	16	168	6
TAP	16	180	5
TAP	16	192	4
TAP	16	240	2
TAP	16	264	3
TAP	16	288	1
TAP	16	288	4
TAP	16	312	5
TAP	16	336	5
TAP	16	360	4
TAP	17	0	3
STR	17	0	5
SXL	17	0	5	96	96	4
TAP	17	96	1
TAP	17	120	1
HLD	17	168	2	72
TAP	17	240	3
TAP	17	288	3
TAP	17	288	4
TAP	17	336	4
TAP	17	336	5
TAP	17	360	4
TAP	17	360	5
TAP	18	24	0
TAP	18	24	7
TAP	18	72	2
TAP	18	96	3
TAP	18	120	1
TAP	18	120	4
HLD	18	168	4	12
HLD	18	168	5	12
TAP	18	216	3
TAP	18	216	6
TAP	18	264	2
TAP	18	264	5
TAP	18	288	1
STR	18	288	6
SI_	18	288	6	96	24	4
TAP	18	312	0
TAP	18	312	7
HLD	19	0	3	48
STR	19	0	6
SI_	19	0	6	96	24	0
HLD	19	96	1	48
STR	19	96	6
SI_	19	96	6	96	24	2
HLD	19	192	7	48
TAP	19	240	0
TAP	19	264	7
STR	19	288	1
SI_	19	288	1	96	24	7
TAP	19	288	6
TAP	19	336	3
TAP	19	336	4
STR	20	0	1
SI_	20	0	1	96	24	3
HLD	20	0	6	48
STR	20	96	1
SI_	20	96	1	96	24	5
HLD	20	96	4	48
HLD	20	192	6	48
TAP	20	240	4
TAP	20	264	2
STR	20	288	0
SCR	20	288	0	96	24	3
STR	20	288	4
SCR	20	288	4	96	24	7
STR	21	0	4
SI_	21	0	4	96	24	0
TAP	21	96	4
STR	21	96	6
SI_	21	96	6	96	24	2
HLD	21	192	1	48
TAP	21	192	6
TAP	21	240	0
TAP	21	264	1
TAP	21	288	2
TAP	21	288	7
STR	21	336	6
SCL	21	336	6	96	72	1
TAP	21	360	1
TAP	22	0	0
TAP	22	0	7
HLD	22	48	0	96
TAP	22	144	7
STR	22	168	0
SI_	22	168	0	96	24	4
STR	22	168	7
SI_	22	168	7	96	24	3
TAP	22	216	2
TAP	22	216	5
TAP	22	240	1
TAP	22	240	6
TAP	22	264	0
TAP	22	264	7
TAP	22	336	1
TAP	22	336	6
STR	23	0	3
SI_	23	0	3	96	24	1
TAP	23	0	4
TAP	23	48	5
TAP	23	96	3
STR	23	96	6
SI_	23	96	6	96	24	4
TAP	23	144	7
HLD	23	192	0	48
TAP	23	192	6
HLD	23	240	3	96
TAP	23	264	1
HLD	23	288	2	48
TAP	24	0	3
STR	24	0	4
SI_	24	0	4	96	24	6
TAP	24	48	2
STR	24	96	1
SI_	24	96	1	96	24	3
TAP	24	96	4
TAP	24	144	0
TAP	24	192	1
HLD	24	192	7	48
HLD	24	240	4	48
TAP	24	264	6
HLD	24	288	5	48
TAP	24	336	4
TAP	24	360	5
STR	25	0	3
SI_	25	0	3	96	24	0
TAP	25	0	6
TAP	25	48	1
TAP	25	96	3
STR	25	96	4
SI_	25	96	4	96	24	7
TAP	25	144	6
TAP	25	192	3
TAP	25	192	4
TAP	25	240	0
STR	25	264	0
SXL	25	264	0	96	312	3
STR	25	264	7
SXR	25	264	7	96	312	4
TAP	25	312	3
TAP	25	312	4
BRK	27	0	5
BRK	27	0	6
STR	27	4	4
SLL	27	4	4	96	188	5
STR	27	4	7
SLR	27	4	7	96	188	6
TAP	27	8	0
TAP	27	8	3
TAP	27	12	1
TAP	27	12	2
TAP	28	0	2
TAP	28	0	5
TAP	28	8	1
TAP	28	16	0
TAP	28	24	7
TAP	28	32	6
TAP	28	40	5
TAP	28	48	2
TAP	28	56	1
TAP	28	64	0
TAP	28	72	7
TAP	28	80	6
TAP	28	88	5
TAP	28	96	2
TAP	28	104	1
TAP	28	112	0
TAP	28	120	7
TAP	28	128	6
TAP	28	136	5
TAP	28	144	2
TAP	28	152	1
TAP	28	160	0
TAP	28	168	7
TAP	28	176	6
TAP	28	184	5
TAP	28	192	3
TAP	28	192	4
TAP	28	216	3
TAP	28	216	4
TAP	28	240	2
TAP	28	240	5
TAP	28	264	1
TAP	28	264	6
BRK	28	288	0
BRK	28	288	7
STR	29	0	0
SI_	29	0	0	96	24	4
HLD	29	0	4	96
TAP	29	48	6
TAP	29	96	0
HLD	29	144	3	96
STR	29	144	7
SI_	29	144	7	96	24	3
STR	29	192	1
SF_	29	192	1	96	24	5
TAP	29	240	7
BRK	29	288	1
TAP	30	0	2
TAP	30	0	5
TAP	30	8	6
TAP	30	16	7
TAP	30	24	0
TAP	30	32	1
TAP	30	40	2
TAP	30	48	5
TAP	30	56	6
TAP	30	64	7
TAP	30	72	0
TAP	30	80	1
TAP	30	88	2
STR	30	96	5
SXR	30	96	5	96	72	2
TAP	30	104	6
TAP	30	112	7
TAP	30	120	0
TAP	30	128	1
TAP	30	136	2
TAP	30	144	5
TAP	30	152	6
TAP	30	160	7
TAP	30	168	0
TAP	30	176	1
TAP	30	184	2
BRK	30	288	0
BRK	30	288	7
HLD	30	336	1	48
HLD	30	336	6	48
TAP	31	48	1
HLD	31	48	3	48
HLD	31	96	4	48
HLD	31	144	6	48
STR	31	192	2
SI_	31	192	2	96	24	6
TAP	31	204	6
TAP	31	216	2
TAP	31	228	6
TAP	31	240	2
TAP	31	252	6
TAP	31	264	2
TAP	31	276	6
BRK	31	288	2
TAP	32	0	2
TAP	32	0	5
TAP	32	8	1
TAP	32	16	0
TAP	32	24	7
TAP	32	32	6
TAP	32	40	5
TAP	32	48	2
TAP	32	56	1
TAP	32	64	0
TAP	32	72	7
TAP	32	80	6
TAP	32	88	5
TAP	32	96	2
TAP	32	104	1
TAP	32	112	0
TAP	32	120	7
TAP	32	128	6
TAP	32	136	5
TAP	32	144	2
TAP	32	152	1
TAP	32	160	0
TAP	32	168	7
TAP	32	176	6
TAP	32	184	5
TAP	32	192	3
TAP	32	192	4
TAP	32	216	3
TAP	32	216	4
STR	32	240	3
SI_	32	240	3	96	24	7
STR	32	240	4
SI_	32	240	4	96	24	0
TAP	32	288	1
TAP	32	296	2
TAP	32	304	3
TAP	32	312	6
TAP	32	320	5
TAP	32	328	4
TAP	33	0	1
TAP	33	0	6
STR	33	48	3
SCL	33	48	3	96	24	0
STR	33	48	7
SCL	33	48	7	96	24	4
TAP	33	96	0
TAP	33	96	4
STR	33	192	1
SLR	33	192	1	96	48	5
STR	33	192	5
SLR	33	192	5	96	48	1
TAP	33	240	3
TAP	33	240	7
BRK	33	288	1
BRK	33	288	5
TAP	34	0	4
TAP	34	0	5
TAP	34	48	3
TAP	34	48	4
TAP	34	96	2
TAP	34	96	3
TAP	34	120	1
TAP	34	144	0
TAP	34	144	7
TAP	34	192	5
TAP	34	216	4
TAP	34	216	6
TAP	34	264	2
TAP	34	288	1
TAP	34	288	3
TAP	34	336	3
TAP	34	336	4
TAP	35	0	3
TAP	35	12	5
TAP	35	24	4
TAP	35	36	5
TAP	35	48	2
TAP	35	60	5
TAP	35	72	4
TAP	35	84	5
TAP	35	96	1
TAP	35	108	5
TAP	35	120	4
TAP	35	132	5
TAP	35	144	0
TAP	35	156	5
TAP	35	168	4
TAP	35	180	5
TAP	35	192	7
TAP	35	204	5
TAP	35	216	4
TAP	35	228	5
TAP	35	240	6
TAP	35	252	5
TAP	35	264	4
HLD	35	276	5	60
TAP	35	336	4
TAP	36	0	3
STR	36	0	6
SI_	36	0	6	96	24	4
TAP	36	48	0
TAP	36	48	7
TAP	36	96	6
TAP	36	144	2
TAP	36	168	3
STR	36	192	1
SI_	36	192	1	96	24	3
TAP	36	192	4
TAP	36	240	0
TAP	36	264	0
TAP	36	288	1
HLD	36	312	7	48
TAP	36	360	0
STR	37	0	6
SI_	37	0	6	96	24	0
TAP	37	48	3
TAP	37	48	4
TAP	37	96	6
TAP	37	120	2
TAP	37	144	2
TAP	37	168	2
STR	37	192	1
SI_	37	192	1	96	24	7
TAP	37	192	3
TAP	37	240	6
TAP	37	264	6
TAP	37	288	1
TAP	37	312	5
TAP	37	336	5
TAP	37	360	4
TAP	37	360	6
STR	38	0	3
SCL	38	0	3	96	24	0
TAP	38	0	7
TAP	38	96	3
TAP	38	96	4
TAP	38	144	5
TAP	38	144	6
STR	38	168	5
SLR	38	168	5	96	48	1
STR	38	168	6
SLR	38	168	6	96	48	2
STR	38	216	1
SLR	38	216	1	96	48	5
STR	38	216	2
SLR	38	216	2	96	48	6
TAP	39	0	1
TAP	39	12	0
TAP	39	24	1
TAP	39	36	0
TAP	39	48	2
TAP	39	60	7
TAP	39	72	2
TAP	39	84	7
TAP	39	96	3
TAP	39	108	6
TAP	39	120	3
TAP	39	132	6
TAP	39	144	4
TAP	39	156	5
TAP	39	168	4
TAP	39	180	5
TAP	39	192	3
TAP	39	204	4
TAP	39	216	3
TAP	39	228	4
TAP	39	240	2
TAP	39	252	3
TAP	39	264	2
TAP	39	276	3
TAP	39	288	1
TAP	39	300	4
TAP	39	312	1
TAP	39	324	4
TAP	39	336	0
TAP	39	348	5
TAP	39	360	0
TAP	39	372	5
STR	40	0	6
SI_	40	0	6	96	24	3
STR	40	0	7
SI_	40	0	7	96	24	2
TAP	40	48	0
TAP	40	48	5
TAP	40	72	0
TAP	40	72	5
TAP	40	96	6
TAP	40	96	7
TAP	40	144	1
TAP	40	144	4
TAP	40	168	1
TAP	40	168	4
STR	40	216	3
SCL	40	216	3	96	24	0
TAP	40	216	6
TAP	40	240	3
TAP	40	240	6
TAP	40	288	4
TAP	40	336	5
TAP	40	360	5
STR	41	0	4
SCR	41	0	4	96	24	7
TAP	41	0	6
TAP	41	48	1
TAP	41	48	3
TAP	41	96	0
HLD	41	120	0	48
TAP	41	168	7
TAP	41	216	4
TAP	41	216	5
TAP	41	240	2
TAP	41	240	3
STR	41	264	0
SI_	41	264	0	96	24	4
STR	41	264	7
SI_	41	264	7	96	24	3
TAP	41	312	0
TAP	41	312	7
TAP	41	324	1
TAP	41	324	6
TAP	41	336	2
TAP	41	336	5
BRK	41	360	0
BRK	41	360	7
HLD	42	96	2	96
TAP	42	192	3
TAP	42	240	4
TAP	42	288	3
TAP	43	0	3
TAP	43	0	4
HLD	43	96	5	96
TAP	43	192	4
TAP	43	240	3
TAP	43	288	4
TAP	44	0	3
TAP	44	0	4
BRK	46	0	1
BRK	46	0	5
TAP	46	6	2
TAP	46	6	6
TAP	46	12	3
TAP	46	12	7
TAP	46	18	0
TAP	46	18	4
HLD	46	24	1	264
HLD	46	24	5	264
TAP	47	0	3
HLD	47	0	4	48
STR	47	48	1
SI_	47	48	1	96	24	3
TAP	47	72	0
TAP	47	120	0
TAP	47	144	1
TAP	47	144	7
HLD	47	192	4	48
TAP	47	192	5
STR	47	240	6
SI_	47	240	6	96	24	4
TAP	47	264	7
TAP	47	312	7
TAP	47	336	0
TAP	47	336	6
TAP	47	360	0
TAP	47	372	1
HLD	48	0	2	240
TAP	48	0	3
TAP	48	96	3
TAP	48	192	3
TAP	48	240	3
TAP	48	252	4
TAP	48	264	5
TAP	48	276	6
STR	48	288	7
SI_	48	288	7	96	24	3
TAP	48	300	0
TAP	48	312	1
TAP	48	324	2
TAP	48	336	3
TAP	49	0	7
TAP	49	48	1
TAP	49	60	4
TAP	49	72	1
TAP	49	84	4
TAP	49	96	0
TAP	49	108	5
TAP	49	120	0
TAP	49	132	5
TAP	49	144	7
TAP	49	156	6
TAP	49	168	7
TAP	49	180	6
STR	49	192	0
SI_	49	192	0	96	24	4
TAP	49	204	1
TAP	49	216	2
TAP	49	228	3
STR	49	240	7
SI_	49	240	7	96	24	3
TAP	49	252	6
TAP	49	264	5
TAP	49	276	4
TAP	49	288	0
TAP	49	336	7
TAP	50	0	1
TAP	50	0	5
TAP	50	48	3
TAP	50	60	6
TAP	50	72	3
TAP	50	84	6
TAP	50	96	2
TAP	50	108	5
TAP	50	120	2
TAP	50	132	5
TAP	50	144	1
TAP	50	156	4
TAP	50	168	1
TAP	50	180	4
TAP	50	192	0
TAP	50	204	7
TAP	50	216	1
TAP	50	228	6
STR	50	240	0
SI_	50	240	0	96	24	4
TAP	50	252	7
TAP	50	264	2
TAP	50	276	5
TAP	50	288	0
TAP	50	300	7
TAP	50	312	3
TAP	50	324	4
TAP	50	336	0
TAP	51	0	2
TAP	51	0	6
TAP	51	24	5
TAP	51	36	4
TAP	51	48	5
TAP	51	60	4
TAP	51	72	6
TAP	51	96	3
TAP	51	96	4
TAP	51	120	2
TAP	51	132	3
TAP	51	144	2
TAP	51	156	3
TAP	51	168	1
TAP	51	192	6
TAP	51	204	5
TAP	51	216	4
TAP	51	228	3
TAP	51	240	0
TAP	51	252	1
TAP	51	264	2
TAP	51	276	3
TAP	51	288	4
TAP	51	288	5
TAP	51	312	3
TAP	51	312	7
TAP	52	0	1
TAP	52	0	5
TAP	52	24	2
TAP	52	36	3
TAP	52	48	2
TAP	52	60	3
TAP	52	72	1
TAP	52	96	3
TAP	52	96	4
TAP	52	120	5
TAP	52	132	4
TAP	52	144	5
TAP	52	156	4
TAP	52	168	6
TAP	52	192	1
TAP	52	204	2
TAP	52	216	3
TAP	52	228	4
TAP	52	240	7
TAP	52	252	6
TAP	52	264	5
TAP	52	276	4
TAP	52	288	2
TAP	52	288	3
TAP	52	312	0
TAP	52	312	4
TAP	53	0	1
STR	53	0	6
SCL	53	0	6	96	24	3
TAP	53	48	7
TAP	53	60	0
TAP	53	72	7
TAP	53	84	0
STR	53	96	1
SI_	53	96	1	96	24	4
TAP	53	96	6
TAP	53	144	0
TAP	53	156	7
TAP	53	168	0
TAP	53	180	7
TAP	53	192	1
STR	53	192	6
SI_	53	192	6	96	24	2
TAP	53	240	7
TAP	53	252	0
TAP	53	264	7
TAP	53	276	0
TAP	53	288	1
TAP	53	288	6
TAP	53	336	0
TAP	53	336	7
TAP	53	360	0
TAP	53	360	7
TAP	54	0	1
TAP	54	0	3
TAP	54	24	2
TAP	54	48	4
TAP	54	48	6
TAP	54	72	5
TAP	54	96	0
TAP	54	96	3
TAP	54	120	2
TAP	54	144	4
TAP	54	144	7
TAP	54	168	5
TAP	54	192	3
TAP	54	192	4
TAP	54	204	2
TAP	54	216	1
TAP	54	228	0
TAP	54	240	6
TAP	54	252	5
TAP	54	264	4
TAP	54	276	3
TAP	54	288	0
TAP	54	300	1
TAP	54	312	2
TAP	54	324	3
STR	54	336	4
SI_	54	336	4	96	336	0
TAP	54	336	5
TAP	54	360	0
TAP	54	360	7
TAP	55	0	2
TAP	55	0	3
HLD	56	0	4	1128
HLD	57	0	3	744

T_REC_TAP	660
T_REC_BRK	16
T_REC_XTP	0
T_REC_HLD	53
T_REC_XHO	0
T_REC_STR	84
T_REC_BST	0
T_REC_XST	0
T_REC_TTP	0
T_REC_THO	0
T_REC_SLD	84
T_REC_ALL	897
T_NUM_TAP	744
T_NUM_BRK	16
T_NUM_HLD	53
T_NUM_SLD	84
T_NUM_ALL	897
T_JUDGE_TAP	760
T_JUDGE_HLD	223
T_JUDGE_SLD	84
T_JUDGE_ALL	1067
TTM_EACHPAIRS	169
TTM_SCR_TAP	372000
TTM_SCR_BRK	41600
TTM_SCR_HLD	53000
TTM_SCR_SLD	126000
TTM_SCR_ALL	592600
TTM_SCR_S	573300
TTM_SCR_SS	591000
TTM_RAT_ACV	10027

