VERSION	0.00.00	1.03.00
FES_MODE	0
BPM_DEF	 90.000	 90.000	 90.000	 90.000
MET_DEF	4	4
RESOLUTION	384
CLK_DEF	384
COMPATIBLE_CODE	MA2

BPM	0	0	 90.000
MET	0	0	4	4

BST	1	0	1
SI_	1	0	1	96	144	6
BST	1	0	2
SI_	1	0	2	96	144	5
TAP	1	288	3
TAP	1	288	4
HLD	2	0	2	48
TAP	2	48	3
TAP	2	72	2
TAP	2	96	4
TAP	2	144	3
TAP	2	144	5
HLD	2	192	6	48
TAP	2	240	4
TAP	2	264	5
TAP	2	288	3
TAP	2	336	2
TAP	2	336	4
HLD	3	0	1	48
TAP	3	48	3
TAP	3	72	2
TAP	3	96	4
TAP	3	144	3
TAP	3	144	5
TAP	3	192	6
TAP	3	216	6
TAP	3	240	4
HLD	3	288	3	48
HLD	3	288	5	48
TAP	4	0	2
TAP	4	24	2
TAP	4	48	4
TAP	4	72	3
TAP	4	96	3
TAP	4	96	5
TAP	4	144	6
TAP	4	168	6
TAP	4	192	4
TAP	4	216	5
TAP	4	240	3
TAP	4	264	4
TAP	4	288	2
TAP	4	288	4
TAP	5	0	1
TAP	5	24	1
TAP	5	48	3
TAP	5	72	2
TAP	5	96	2
TAP	5	96	4
TAP	5	144	6
TAP	5	168	6
TAP	5	192	4
TAP	5	216	5
TAP	5	240	3
TAP	5	264	4
TAP	5	288	2
TAP	5	288	4
TAP	5	336	3
TAP	5	336	4
TAP	6	0	3
HLD	6	0	5	48
TAP	6	48	4
TAP	6	72	5
TAP	6	96	3
TAP	6	144	2
TAP	6	144	4
HLD	6	192	1	48
TAP	6	240	3
TAP	6	264	2
TAP	6	288	4
TAP	6	336	3
TAP	6	336	5
HLD	7	0	6	48
TAP	7	48	4
TAP	7	72	5
TAP	7	96	3
TAP	7	144	2
TAP	7	144	4
TAP	7	192	1
TAP	7	216	1
TAP	7	240	3
HLD	7	288	2	48
HLD	7	288	4	48
TAP	8	0	5
TAP	8	24	5
TAP	8	48	3
TAP	8	72	4
TAP	8	96	2
TAP	8	96	4
TAP	8	144	1
TAP	8	168	1
TAP	8	192	3
TAP	8	216	2
TAP	8	240	4
TAP	8	264	3
TAP	8	288	3
TAP	8	288	5
TAP	9	0	6
TAP	9	24	6
TAP	9	48	4
TAP	9	72	5
TAP	9	96	3
TAP	9	96	5
TAP	9	144	1
TAP	9	168	1
TAP	9	192	3
TAP	9	216	2
TAP	9	240	4
TAP	9	264	3
TAP	9	288	3
TAP	9	288	4
TAP	9	336	0
TAP	9	336	7
HLD	10	0	1	288
HLD	10	0	6	288
TAP	11	0	3
TAP	11	0	4
HLD	11	96	6	192
HLD	11	168	4	120
TAP	11	336	3
TAP	11	336	5
TAP	12	0	3
TAP	12	0	5
TAP	12	96	2
TAP	12	96	4
TAP	12	144	1
HLD	12	168	1	72
TAP	12	240	3
TAP	12	288	2
TAP	12	288	4
TAP	12	336	3
TAP	12	336	5
TAP	12	360	3
TAP	12	360	5
HLD	13	96	6	72
HLD	13	168	4	72
TAP	13	240	3
HLD	13	288	2	72
TAP	13	360	4
STR	14	96	6
SLL	14	96	6	96	96	7
TAP	14	288	1
HLD	14	312	1	72
BRK	15	0	0
TAP	15	96	6
TAP	15	120	6
TAP	15	144	0
TAP	15	168	7
HLD	15	240	3	72
HLD	15	240	5	72
TAP	15	360	6
HLD	16	0	6	96
TAP	16	72	4
HLD	16	96	4	96
TAP	16	168	2
STR	16	192	2
SCR	16	192	2	96	48	5
TAP	16	288	0
HLD	17	0	6	96
TAP	17	96	2
TAP	17	120	2
TAP	17	144	5
TAP	17	168	3
TAP	17	240	4
TAP	17	240	6
TAP	17	288	4
TAP	17	288	6
TAP	17	336	5
HLD	17	360	5	48
TAP	18	24	7
HLD	18	48	7	48
TAP	18	96	0
HLD	18	120	0	48
TAP	18	168	2
TAP	18	216	3
TAP	18	216	4
TAP	18	240	3
TAP	18	240	4
TAP	18	288	0
TAP	18	288	7
TAP	18	312	1
TAP	18	312	6
HLD	19	0	2	96
TAP	19	0	4
STR	19	96	3
SI_	19	96	3	96	48	0
STR	19	192	4
SI_	19	192	4	96	48	7
HLD	20	0	5	96
STR	20	96	4
SI_	20	96	4	96	48	7
STR	20	192	3
SI_	20	192	3	96	48	0
HLD	21	0	2	96
STR	21	96	3
SI_	21	96	3	96	48	0
STR	21	192	4
SI_	21	192	4	96	48	7
STR	22	0	3
SUR	22	0	3	96	144	4
TAP	22	336	3
TAP	22	336	5
TAP	23	0	3
HLD	23	0	5	96
STR	23	96	4
SCR	23	96	4	96	48	7
STR	23	192	3
SCL	23	192	3	96	48	0
HLD	24	0	2	96
STR	24	96	3
SCL	24	96	3	96	48	0
STR	24	192	4
SCR	24	192	4	96	48	7
HLD	25	0	6	96
STR	25	96	5
SCL	25	96	5	96	48	2
STR	25	192	6
SCR	25	192	6	96	48	1
STR	26	0	1
SCL	26	0	1	96	240	3
STR	26	0	2
SCR	26	0	2	96	240	0
BST	27	0	1
SI_	27	0	1	96	144	6
BST	27	0	2
SI_	27	0	2	96	144	5
TAP	27	288	3
TAP	27	312	3
TAP	27	336	3
TAP	27	360	3
HLD	28	0	5	144
TAP	28	96	7
HLD	28	144	7	96
TAP	28	192	1
HLD	28	240	3	96
HLD	28	288	1	96
HLD	29	0	7	48
HLD	29	48	5	96
TAP	29	96	1
TAP	29	144	0
STR	29	192	0
SI_	29	192	0	96	48	6
STR	29	192	1
SI_	29	192	1	96	48	5
TAP	29	240	0
TAP	29	240	1
HLD	30	0	7	144
TAP	30	96	1
HLD	30	144	1	48
HLD	30	192	3	96
HLD	30	240	7	144
TAP	30	336	1
HLD	31	0	5	48
HLD	31	48	3	96
TAP	31	96	7
TAP	31	144	0
STR	31	192	1
SI_	31	192	1	96	48	6
STR	31	192	2
SI_	31	192	2	96	48	5
TAP	31	240	1
TAP	31	240	2
HLD	32	0	1	144
TAP	32	96	3
HLD	32	144	7	48
HLD	32	192	5	144
TAP	32	240	3
HLD	32	288	1	48
TAP	33	0	0
TAP	33	0	4
TAP	33	48	3
TAP	33	48	7
TAP	33	96	2
TAP	33	96	6
TAP	33	144	1
TAP	33	144	5
STR	33	192	0
SV_	33	192	0	96	48	2
STR	33	192	4
SV_	33	192	4	96	48	6
TAP	33	240	3
TAP	33	240	7
TAP	34	0	3
TAP	34	0	5
TAP	34	48	3
TAP	34	48	5
TAP	34	96	2
TAP	34	96	4
HLD	34	192	1	72
HLD	34	264	2	72
STR	34	336	3
SI_	34	336	3	96	96	0
TAP	35	192	1
TAP	35	216	5
TAP	35	240	3
HLD	35	264	4	72
STR	35	288	0
SCL	35	288	0	96	48	5
SCR	35	288	0	96	48	3
TAP	35	336	0
TAP	36	96	2
TAP	36	96	6
TAP	36	144	3
TAP	36	144	7
TAP	36	168	3
TAP	36	168	7
HLD	36	192	4	48
TAP	36	192	6
TAP	36	240	3
STR	36	264	3
SI_	36	264	3	96	48	0
SI_	36	264	3	96	48	6
TAP	36	312	2
TAP	36	312	4
TAP	37	96	7
TAP	37	120	7
TAP	37	144	2
TAP	37	168	3
HLD	37	192	1	72
TAP	37	240	0
TAP	37	264	0
TAP	37	312	2
TAP	37	312	7
TAP	37	336	1
TAP	37	336	6
TAP	37	360	0
HLD	37	360	5	120
TAP	38	96	4
TAP	38	120	6
TAP	38	144	2
TAP	38	168	4
TAP	38	216	1
TAP	38	216	3
TAP	38	264	0
TAP	38	264	2
TAP	38	312	1
TAP	38	312	3
HLD	38	336	1	48
TAP	38	336	3
TAP	39	0	4
TAP	39	24	5
TAP	39	48	1
TAP	39	72	2
TAP	39	96	5
TAP	39	120	6
TAP	39	144	2
TAP	39	168	3
TAP	39	192	6
TAP	39	216	7
TAP	39	240	3
HLD	39	264	4	72
STR	39	288	7
SCL	39	288	7	96	48	4
SCR	39	288	7	96	48	2
TAP	39	336	7
TAP	40	96	1
TAP	40	96	5
TAP	40	144	0
TAP	40	144	4
TAP	40	168	0
TAP	40	168	4
TAP	40	192	1
HLD	40	192	3	48
TAP	40	240	4
STR	40	264	4
SI_	40	264	4	96	48	1
SI_	40	264	4	96	48	7
TAP	40	312	3
TAP	40	312	5
TAP	41	96	0
TAP	41	120	0
TAP	41	144	5
TAP	41	168	4
HLD	41	192	6	72
TAP	41	240	7
TAP	41	264	7
TAP	41	312	0
BRK	41	312	5
TAP	41	336	1
BRK	41	336	6
TAP	41	360	2
BRK	41	360	7
STR	43	0	4
SLL	43	0	4	96	576	0
SLR	43	0	4	96	576	0
HLD	45	0	1	48
HLD	45	0	7	48
HLD	45	96	2	48
HLD	45	96	6	48
HLD	45	192	3	48
HLD	45	192	5	48
STR	45	288	4
SCL	45	288	4	96	240	0
SCR	45	288	4	96	240	0
BRK	46	0	4
TAP	46	288	1
TAP	46	288	7
HLD	47	0	6	48
TAP	47	48	4
TAP	47	72	5
TAP	47	96	3
TAP	47	144	2
TAP	47	144	4
HLD	47	192	1	48
TAP	47	240	3
TAP	47	264	2
TAP	47	288	4
TAP	47	336	3
TAP	47	336	5
STR	48	0	3
SUL	48	0	3	96	96	4
TAP	48	0	5
TAP	48	240	1
TAP	48	240	6
TAP	48	288	2
TAP	48	300	3
TAP	48	312	2
TAP	48	324	3
TAP	48	336	2
TAP	49	0	3
TAP	49	0	4
TAP	49	48	5
TAP	49	60	4
TAP	49	72	5
TAP	49	96	3
TAP	49	96	4
TAP	49	144	2
TAP	49	156	3
TAP	49	168	2
TAP	49	192	3
TAP	49	192	4
TAP	49	240	6
TAP	49	252	4
TAP	49	264	6
TAP	49	288	3
TAP	49	288	4
TAP	49	336	2
TAP	49	336	5
TAP	50	0	0
TAP	50	0	7
TAP	50	48	1
TAP	50	60	0
TAP	50	72	1
TAP	50	96	0
TAP	50	96	7
TAP	50	144	6
TAP	50	156	7
TAP	50	168	6
TAP	50	192	0
TAP	50	192	7
TAP	50	240	2
TAP	50	252	0
TAP	50	264	2
TAP	50	288	0
TAP	50	288	7
TAP	50	336	2
TAP	50	336	5
TAP	51	0	1
TAP	51	24	1
TAP	51	48	6
TAP	51	60	5
TAP	51	72	4
TAP	51	96	0
TAP	51	120	0
TAP	51	144	4
TAP	51	156	5
TAP	51	168	6
TAP	51	192	1
TAP	51	216	1
TAP	51	240	6
TAP	51	252	5
TAP	51	264	4
TAP	51	288	0
TAP	51	312	0
TAP	51	336	1
TAP	51	336	7
TAP	52	0	6
TAP	52	24	6
TAP	52	48	1
TAP	52	60	2
TAP	52	72	3
TAP	52	96	7
TAP	52	120	7
TAP	52	144	3
TAP	52	156	2
TAP	52	168	1
TAP	52	192	6
TAP	52	216	6
TAP	52	240	1
TAP	52	252	2
TAP	52	264	3
TAP	52	288	7
TAP	52	312	7
TAP	52	336	0
TAP	52	336	6
TAP	53	0	2
TAP	53	24	2
TAP	53	48	5
TAP	53	60	6
TAP	53	72	7
TAP	53	96	3
TAP	53	120	3
TAP	53	144	7
TAP	53	156	6
TAP	53	168	5
TAP	53	192	2
TAP	53	216	2
TAP	53	240	5
TAP	53	252	6
TAP	53	264	7
TAP	53	288	3
TAP	53	312	3
HLD	53	336	7	24
HLD	53	360	4	24
TAP	54	0	5
TAP	54	24	5
TAP	54	48	2
TAP	54	60	1
TAP	54	72	0
TAP	54	96	4
TAP	54	120	4
TAP	54	144	0
TAP	54	156	1
TAP	54	168	2
TAP	54	192	5
TAP	54	216	5
TAP	54	240	2
TAP	54	252	1
TAP	54	264	0
TAP	54	288	4
TAP	54	312	4
TAP	54	336	0
TAP	54	360	0
STR	55	0	1
SI_	55	0	1	96	1440	6
TAP	55	0	5
BRK	55	48	7

T_REC_TAP	384
T_REC_BRK	6
T_REC_XTP	0
T_REC_HLD	69
T_REC_XHO	0
T_REC_STR	32
T_REC_BST	4
T_REC_XST	0
T_REC_TTP	0
T_REC_THO	0
T_REC_SLD	42
T_REC_ALL	537
T_NUM_TAP	416
T_NUM_BRK	10
T_NUM_HLD	69
T_NUM_SLD	42
T_NUM_ALL	537
T_JUDGE_TAP	426
T_JUDGE_HLD	231
T_JUDGE_SLD	42
T_JUDGE_ALL	699
TTM_EACHPAIRS	95
TTM_SCR_TAP	208000
TTM_SCR_BRK	26000
TTM_SCR_HLD	69000
TTM_SCR_SLD	63000
TTM_SCR_ALL	366000
TTM_SCR_S	354050
TTM_SCR_SS	365000
TTM_RAT_ACV	10027

