VERSION	0.00.00	1.03.00
FES_MODE	0
BPM_DEF	 90.000	 90.000	 90.000	 90.000
MET_DEF	4	4
RESOLUTION	384
CLK_DEF	384
COMPATIBLE_CODE	MA2

BPM	0	0	 90.000
MET	0	0	4	4

BST	1	0	1
SI_	1	0	1	96	96	6
BST	1	0	2
SI_	1	0	2	96	96	5
TAP	1	288	7
TAP	2	0	0
TAP	2	48	0
TAP	2	96	1
TAP	2	144	1
TAP	2	192	2
TAP	2	240	2
TAP	2	288	1
TAP	2	288	3
TAP	3	0	4
TAP	3	48	4
TAP	3	96	5
TAP	3	144	5
TAP	3	192	6
TAP	3	240	6
TAP	3	288	0
TAP	3	288	7
TAP	4	0	1
TAP	4	48	1
TAP	4	96	2
TAP	4	144	2
TAP	4	192	3
TAP	4	240	3
TAP	4	288	2
TAP	4	288	4
TAP	5	0	5
TAP	5	48	5
TAP	5	96	6
TAP	5	144	6
TAP	5	192	7
TAP	5	240	7
TAP	5	288	0
TAP	5	288	7
TAP	6	0	7
TAP	6	48	7
TAP	6	96	6
TAP	6	144	6
TAP	6	192	5
TAP	6	240	5
TAP	6	288	4
TAP	6	288	6
TAP	7	0	3
TAP	7	48	3
TAP	7	96	2
TAP	7	144	2
TAP	7	192	1
TAP	7	240	1
TAP	7	288	0
TAP	7	288	7
TAP	8	0	6
TAP	8	48	6
TAP	8	96	5
TAP	8	144	5
TAP	8	192	4
TAP	8	240	4
TAP	8	288	3
TAP	8	288	5
TAP	9	0	2
TAP	9	48	2
TAP	9	96	1
TAP	9	144	1
TAP	9	192	0
TAP	9	240	0
TAP	9	288	0
TAP	9	288	7
STR	10	0	1
SI_	10	0	1	96	96	4
STR	10	0	6
SI_	10	0	6	96	96	3
TAP	10	288	3
TAP	10	288	4
TAP	11	0	5
STR	11	96	5
SCL	11	96	5	96	96	2
TAP	12	0	1
TAP	12	96	2
TAP	12	192	3
TAP	12	240	3
TAP	12	288	2
TAP	12	288	4
TAP	13	0	3
TAP	13	0	5
STR	13	96	2
SCR	13	96	2	96	96	5
TAP	14	0	6
TAP	14	96	5
TAP	14	192	4
TAP	14	240	4
TAP	14	288	3
TAP	14	336	3
STR	15	0	2
SI_	15	0	2	96	96	7
STR	15	192	6
SI_	15	192	6	96	96	3
TAP	16	0	2
TAP	16	96	2
TAP	16	96	3
TAP	16	192	4
TAP	16	288	3
TAP	16	288	5
STR	17	0	6
SI_	17	0	6	96	96	3
STR	17	192	2
SI_	17	192	2	96	96	7
TAP	18	0	6
TAP	18	96	6
TAP	18	96	7
TAP	18	192	0
TAP	18	240	0
TAP	18	288	1
TAP	18	288	7
HLD	19	0	2	96
HLD	19	96	3	96
TAP	19	192	2
TAP	19	240	2
TAP	19	288	2
TAP	19	288	3
HLD	20	0	5	96
HLD	20	96	4	96
TAP	20	192	5
TAP	20	240	5
TAP	20	288	4
TAP	20	288	5
HLD	21	0	2	96
HLD	21	96	3	96
TAP	21	192	2
TAP	21	240	2
TAP	21	288	2
TAP	21	288	3
STR	22	0	4
SI_	22	0	4	96	96	7
STR	22	192	0
SI_	22	192	0	96	96	3
HLD	23	0	5	96
HLD	23	96	4	96
TAP	23	192	5
TAP	23	240	5
TAP	23	288	4
TAP	23	288	6
HLD	24	0	2	96
HLD	24	96	3	96
TAP	24	192	2
TAP	24	240	2
TAP	24	288	1
TAP	24	288	3
HLD	25	0	5	96
HLD	25	96	4	96
TAP	25	192	5
TAP	25	240	5
TAP	25	288	4
STR	25	288	6
SLL	25	288	6	96	192	0
BST	27	0	1
SI_	27	0	1	96	96	6
BST	27	0	2
SI_	27	0	2	96	96	5
TAP	27	288	7
STR	28	0	0
SCR	28	0	0	96	96	3
STR	28	192	4
SV_	28	192	4	96	96	7
TAP	29	0	1
TAP	29	96	1
TAP	29	192	0
TAP	29	192	1
STR	30	0	2
SCL	30	0	2	96	96	7
STR	30	192	6
SV_	30	192	6	96	96	3
TAP	31	0	2
TAP	31	96	2
TAP	31	192	2
TAP	31	192	3
BRK	31	288	1
STR	32	0	0
SCR	32	0	0	96	96	3
STR	32	192	4
SV_	32	192	4	96	96	7
TAP	33	0	1
TAP	33	96	0
TAP	33	192	7
TAP	33	288	6
TAP	34	0	4
TAP	34	0	5
TAP	34	96	2
TAP	34	96	3
TAP	34	192	0
TAP	34	192	1
STR	34	288	0
SI_	34	288	0	96	96	4
STR	34	288	7
SI_	34	288	7	96	96	3
TAP	35	192	3
TAP	35	192	4
TAP	35	288	2
TAP	35	288	5
BRK	36	0	6
TAP	36	48	6
TAP	36	96	6
TAP	36	96	7
TAP	36	192	5
TAP	36	240	5
TAP	36	288	4
TAP	36	336	4
TAP	37	0	3
TAP	37	48	3
TAP	37	96	2
TAP	37	96	4
TAP	37	192	1
TAP	37	240	1
TAP	37	288	0
TAP	37	336	0
TAP	38	0	7
TAP	38	48	7
TAP	38	96	1
TAP	38	96	6
TAP	38	192	5
TAP	38	240	5
TAP	38	288	4
TAP	38	288	5
TAP	39	0	2
TAP	39	48	2
TAP	39	96	3
TAP	39	144	3
TAP	39	192	2
TAP	39	192	3
TAP	39	240	2
TAP	39	240	3
TAP	39	288	1
TAP	39	288	4
BRK	40	0	1
TAP	40	48	1
TAP	40	96	0
TAP	40	96	1
TAP	40	192	2
TAP	40	240	2
TAP	40	288	3
TAP	40	336	3
TAP	41	0	4
TAP	41	48	4
TAP	41	96	3
TAP	41	96	5
TAP	41	192	6
TAP	41	240	6
TAP	41	288	7
TAP	41	336	7
STR	42	0	0
SXL	42	0	0	96	144	1
STR	42	0	7
SXR	42	0	7	96	144	6
STR	43	0	0
SXL	43	0	0	96	144	1
STR	43	0	7
SXR	43	0	7	96	144	6
STR	44	0	0
SXL	44	0	0	96	144	1
STR	44	0	7
SXR	44	0	7	96	144	6
STR	45	0	1
SLR	45	0	1	96	192	7
STR	45	0	6
SLL	45	0	6	96	192	0
BST	46	0	0
SCR	46	0	0	96	96	3
BST	46	0	7
SCL	46	0	7	96	96	4
TAP	46	288	3
TAP	46	288	4
TAP	47	0	5
TAP	47	48	5
TAP	47	96	6
TAP	47	144	6
TAP	47	192	7
TAP	47	240	7
TAP	47	288	0
TAP	47	336	0
TAP	48	0	1
TAP	48	48	1
TAP	48	96	2
TAP	48	144	2
TAP	48	192	3
TAP	48	240	3
TAP	48	288	2
TAP	48	288	4
TAP	49	0	2
TAP	49	48	2
TAP	49	96	1
TAP	49	144	1
TAP	49	192	0
TAP	49	240	0
TAP	49	288	7
TAP	49	336	7
TAP	50	0	6
TAP	50	48	6
TAP	50	96	5
TAP	50	144	5
TAP	50	192	4
TAP	50	192	5
TAP	50	240	4
TAP	50	240	5
TAP	50	288	3
TAP	50	288	6
TAP	51	0	2
TAP	51	24	2
TAP	51	48	2
TAP	51	96	1
TAP	51	96	3
TAP	51	144	1
TAP	51	144	3
TAP	51	192	0
TAP	51	240	7
TAP	51	288	4
TAP	51	288	6
TAP	52	0	5
TAP	52	24	5
TAP	52	48	5
TAP	52	96	4
TAP	52	96	6
TAP	52	144	4
TAP	52	144	6
TAP	52	192	7
TAP	52	240	0
TAP	52	288	1
TAP	52	288	3
TAP	53	0	2
TAP	53	24	2
TAP	53	48	2
TAP	53	96	1
TAP	53	96	3
TAP	53	144	4
TAP	53	192	5
TAP	53	216	5
TAP	53	240	5
TAP	53	288	4
TAP	53	288	6
TAP	53	336	3
TAP	54	0	3
TAP	54	0	4
TAP	54	24	3
TAP	54	24	4
TAP	54	48	3
TAP	54	48	4
TAP	54	96	2
TAP	54	96	5
TAP	54	120	2
TAP	54	120	5
TAP	54	144	2
TAP	54	144	5
TAP	54	192	1
TAP	54	192	6
TAP	54	216	1
TAP	54	216	6
TAP	54	240	1
TAP	54	240	6
TAP	54	288	0
TAP	54	288	7
TAP	54	312	0
TAP	54	312	7
TAP	54	336	0
TAP	54	336	7
BST	55	0	1
SLR	55	0	1	96	192	7
BST	55	0	6
SLL	55	0	6	96	192	0
STR	56	0	7
SCL	56	0	7	96	192	2
STR	57	0	0
SCR	57	0	0	96	192	5
STR	58	0	7
SSR	58	0	7	96	192	3

T_REC_TAP	283
T_REC_BRK	3
T_REC_XTP	0
T_REC_HLD	12
T_REC_XHO	0
T_REC_STR	30
T_REC_BST	8
T_REC_XST	0
T_REC_TTP	0
T_REC_THO	0
T_REC_SLD	38
T_REC_ALL	374
T_NUM_TAP	313
T_NUM_BRK	11
T_NUM_HLD	12
T_NUM_SLD	38
T_NUM_ALL	374
T_JUDGE_TAP	324
T_JUDGE_HLD	48
T_JUDGE_SLD	38
T_JUDGE_ALL	410
TTM_EACHPAIRS	72
TTM_SCR_TAP	156500
TTM_SCR_BRK	28600
TTM_SCR_HLD	12000
TTM_SCR_SLD	57000
TTM_SCR_ALL	254100
TTM_SCR_S	245450
TTM_SCR_SS	253000
TTM_RAT_ACV	10043

