VERSION	0.00.00	1.03.00
FES_MODE	0
BPM_DEF	 90.000	 90.000	 90.000	 90.000
MET_DEF	4	4
RESOLUTION	384
CLK_DEF	384
COMPATIBLE_CODE	MA2

BPM	0	0	 90.000
MET	0	0	4	4

HLD	1	0	0	192
HLD	1	0	7	192
TAP	2	0	0
TAP	2	192	0
TAP	3	0	7
TAP	3	192	7
HLD	4	0	0	192
HLD	5	0	7	192
TAP	6	0	0
TAP	6	96	0
TAP	6	192	1
TAP	7	0	2
TAP	7	96	2
TAP	7	192	3
TAP	8	0	4
TAP	8	96	4
TAP	8	192	5
TAP	9	0	6
TAP	9	96	6
TAP	9	192	7
BRK	10	0	0
HLD	11	0	7	192
HLD	12	0	6	192
HLD	13	0	5	192
HLD	14	0	3	192
HLD	14	0	4	192
HLD	15	0	2	192
HLD	16	0	1	192
HLD	17	0	0	192
HLD	18	0	0	192
HLD	18	0	7	192
STR	19	0	0
SI_	19	0	0	96	144	4
STR	20	0	7
SI_	20	0	7	96	144	3
STR	21	0	1
SI_	21	0	1	96	144	5
STR	22	0	6
SI_	22	0	6	96	144	2
STR	23	0	1
SI_	23	0	1	96	144	4
STR	24	0	6
SI_	24	0	6	96	144	3
STR	25	0	2
SI_	25	0	2	96	144	6
HLD	26	0	7	192
BRK	27	0	0
BRK	27	0	6
HLD	28	0	7	96
TAP	28	192	7
TAP	28	288	6
HLD	29	0	4	96
HLD	29	0	5	96
TAP	29	192	4
TAP	29	192	5
HLD	30	0	3	96
TAP	30	192	3
TAP	30	288	2
HLD	31	0	0	96
HLD	31	0	1	96
TAP	31	192	0
TAP	31	192	1
HLD	32	0	0	96
TAP	32	192	0
TAP	32	288	1
HLD	33	0	2	96
HLD	33	0	3	96
TAP	33	192	2
TAP	33	192	3
HLD	34	0	4	96
TAP	34	192	4
TAP	34	288	5
TAP	35	0	6
TAP	35	0	7
TAP	35	96	6
TAP	35	96	7
BRK	35	192	0
TAP	36	0	7
TAP	36	48	7
TAP	36	96	7
TAP	36	192	6
TAP	36	288	6
TAP	37	0	5
TAP	37	48	5
TAP	37	96	5
TAP	37	192	3
TAP	37	192	4
TAP	38	0	3
TAP	38	48	3
TAP	38	96	3
TAP	38	192	2
TAP	38	288	2
TAP	39	0	1
TAP	39	48	1
TAP	39	96	1
TAP	39	192	0
TAP	39	192	7
TAP	40	0	0
TAP	40	48	0
TAP	40	96	0
TAP	40	192	1
TAP	40	288	2
TAP	41	0	3
TAP	41	48	3
TAP	41	96	3
TAP	41	192	4
STR	41	288	5
SI_	41	288	5	96	144	1
HLD	44	0	0	192
HLD	44	0	7	192
STR	45	0	0
SI_	45	0	0	96	144	3
STR	45	0	7
SI_	45	0	7	96	144	4
BRK	46	0	3
BRK	46	0	4
TAP	47	0	4
TAP	47	96	4
TAP	47	192	5
TAP	47	288	5
HLD	48	0	4	96
HLD	48	0	6	96
TAP	48	192	4
TAP	48	192	6
TAP	49	0	7
TAP	49	96	7
TAP	49	192	0
TAP	49	288	0
HLD	50	0	1	96
HLD	50	0	7	96
TAP	50	192	1
TAP	50	192	7
TAP	51	0	2
TAP	51	96	2
TAP	51	192	3
TAP	51	288	3
TAP	51	288	4
TAP	52	0	5
TAP	52	96	5
TAP	52	192	6
TAP	52	288	6
TAP	52	288	7
TAP	53	0	5
TAP	53	96	3
TAP	53	96	4
TAP	53	192	2
TAP	53	288	0
TAP	53	288	1
TAP	54	0	6
TAP	54	48	6
TAP	54	96	6
TAP	54	96	7
TAP	54	192	1
TAP	54	240	1
TAP	54	288	0
TAP	54	288	1
STR	55	0	7
SI_	55	0	7	96	144	3
STR	56	0	0
SI_	56	0	0	96	144	4
STR	57	0	7
SI_	57	0	7	96	144	2
HLD	58	0	0	360

T_REC_TAP	99
T_REC_BRK	6
T_REC_XTP	0
T_REC_HLD	32
T_REC_XHO	0
T_REC_STR	13
T_REC_BST	0
T_REC_XST	0
T_REC_TTP	0
T_REC_THO	0
T_REC_SLD	13
T_REC_ALL	163
T_NUM_TAP	112
T_NUM_BRK	6
T_NUM_HLD	32
T_NUM_SLD	13
T_NUM_ALL	163
T_JUDGE_TAP	118
T_JUDGE_HLD	207
T_JUDGE_SLD	13
T_JUDGE_ALL	338
TTM_EACHPAIRS	27
TTM_SCR_TAP	56000
TTM_SCR_BRK	15600
TTM_SCR_HLD	32000
TTM_SCR_SLD	19500
TTM_SCR_ALL	123100
TTM_SCR_S	118850
TTM_SCR_SS	122500
TTM_RAT_ACV	10048

