VERSION	0.00.00	1.03.00
FES_MODE	0
BPM_DEF	165.000	165.000	165.000	165.000
MET_DEF	4	4
RESOLUTION	384
CLK_DEF	384
COMPATIBLE_CODE	MA2

BPM	0	0	165.000
MET	0	0	4	4

TAP	2	0	3
HLD	2	0	4	288
TAP	2	96	5
TAP	2	192	5
TAP	2	288	5
HLD	3	0	3	192
TAP	3	0	4
TAP	3	96	2
STR	3	192	2
SI_	3	192	2	96	48	4
TAP	4	0	3
HLD	4	0	4	288
TAP	4	96	6
TAP	4	192	6
TAP	4	288	6
HLD	5	0	3	192
TAP	5	0	4
TAP	5	96	1
STR	5	192	1
SI_	5	192	1	96	48	3
SI_	5	192	1	96	48	4
STR	6	0	6
SI_	6	0	6	96	48	4
TAP	6	48	6
STR	6	96	3
SI_	6	96	3	96	48	1
TAP	6	144	3
STR	6	192	6
SI_	6	192	6	96	48	3
TAP	6	240	6
TAP	6	288	0
STR	7	0	1
SI_	7	0	1	96	48	3
TAP	7	48	1
STR	7	96	4
SI_	7	96	4	96	48	6
TAP	7	144	4
STR	7	192	1
SI_	7	192	1	96	48	4
TAP	7	240	1
TAP	7	288	7
TAP	8	0	4
TAP	8	0	5
TAP	8	48	3
TAP	8	48	6
TAP	8	192	2
TAP	8	192	3
TAP	8	240	1
TAP	8	240	4
STR	9	0	0
SI_	9	0	0	96	48	4
STR	9	96	0
SF_	9	96	0	96	48	4
TAP	9	192	0
TAP	9	288	2
TAP	9	288	6
TAP	10	0	0
TAP	10	0	7
TAP	10	96	2
TAP	10	96	5
TAP	10	192	0
TAP	10	192	6
TAP	10	240	7
TAP	10	264	0
TAP	10	312	0
TAP	10	336	2
TAP	11	0	2
TAP	11	24	4
TAP	11	72	4
TAP	11	96	6
TAP	11	144	0
TAP	11	144	6
TAP	11	192	1
TAP	11	192	7
TAP	11	240	5
TAP	11	264	4
TAP	11	312	4
TAP	11	336	2
TAP	12	0	2
TAP	12	24	0
TAP	12	72	0
TAP	12	96	6
TAP	12	144	3
TAP	12	144	5
TAP	12	192	0
TAP	12	240	2
TAP	12	240	3
TAP	12	288	4
TAP	12	288	5
TAP	12	336	6
TAP	12	336	7
TAP	13	0	5
TAP	13	24	4
TAP	13	72	4
TAP	13	96	3
TAP	13	144	0
TAP	13	144	1
TAP	13	192	2
TAP	13	192	7
TAP	13	240	3
TAP	13	240	6
TAP	13	288	4
TAP	13	288	5
TAP	14	0	0
TAP	14	0	7
TAP	14	96	2
TAP	14	96	5
TAP	14	192	1
TAP	14	192	7
TAP	14	240	0
TAP	14	264	7
TAP	14	312	7
TAP	14	336	5
TAP	15	0	5
TAP	15	24	3
TAP	15	72	3
TAP	15	96	1
TAP	15	144	1
TAP	15	144	7
TAP	15	192	0
TAP	15	192	6
TAP	15	240	2
TAP	15	264	3
TAP	15	312	3
TAP	15	336	5
TAP	16	0	5
TAP	16	24	7
TAP	16	72	7
TAP	16	96	1
TAP	16	144	2
TAP	16	144	4
TAP	16	192	7
TAP	16	240	4
TAP	16	240	5
TAP	16	288	2
TAP	16	288	3
TAP	16	336	0
TAP	16	336	1
STR	17	0	2
SCL	17	0	2	96	96	3
TAP	17	0	7
TAP	17	288	0
TAP	17	288	4
STR	18	0	1
SV_	18	0	1	96	48	3
STR	18	48	3
SUL	18	48	3	96	48	6
TAP	18	96	5
STR	18	192	4
SI_	18	192	4	96	48	7
TAP	18	240	4
TAP	18	288	0
STR	19	0	6
SV_	19	0	6	96	48	4
STR	19	48	4
SUR	19	48	4	96	48	1
TAP	19	96	2
STR	19	192	3
SI_	19	192	3	96	48	0
TAP	19	240	3
TAP	19	288	7
STR	20	0	1
SV_	20	0	1	96	48	3
STR	20	48	3
SUL	20	48	3	96	48	6
TAP	20	96	5
STR	20	192	4
SI_	20	192	4	96	48	7
TAP	20	240	4
TAP	20	288	0
TAP	21	0	1
TAP	21	24	0
TAP	21	48	1
TAP	21	72	0
TAP	21	96	2
TAP	21	120	3
TAP	21	144	2
TAP	21	168	3
TAP	21	192	1
TAP	21	216	4
TAP	21	240	2
TAP	21	264	5
HLD	21	288	3	48
BRK	21	336	0
STR	22	0	2
SV_	22	0	2	96	48	0
STR	22	48	0
SUR	22	48	0	96	48	5
TAP	22	96	6
STR	22	192	7
SI_	22	192	7	96	48	3
TAP	22	240	7
TAP	22	288	1
STR	23	0	5
SV_	23	0	5	96	48	7
STR	23	48	7
SUL	23	48	7	96	48	2
TAP	23	96	1
STR	23	192	0
SI_	23	192	0	96	48	4
TAP	23	240	0
TAP	23	288	6
STR	24	0	2
SV_	24	0	2	96	48	0
STR	24	48	0
SUR	24	48	0	96	48	5
TAP	24	96	6
STR	24	192	7
SI_	24	192	7	96	48	3
TAP	24	240	7
TAP	24	288	1
TAP	25	0	6
TAP	25	24	7
TAP	25	48	6
TAP	25	72	7
TAP	25	96	5
TAP	25	120	4
TAP	25	144	5
TAP	25	168	4
TAP	25	192	6
TAP	25	216	7
TAP	25	240	0
TAP	25	264	1
BRK	25	288	2
STR	26	0	1
SCL	26	0	1	96	3744	2
TAP	26	192	5
TAP	27	0	4
TAP	27	72	4
TAP	27	144	4
TAP	27	192	3
TAP	28	0	1
TAP	28	192	0
TAP	29	0	6
TAP	29	72	6
TAP	29	144	6
TAP	29	192	5
HLD	30	0	4	96
HLD	30	144	3	96
HLD	30	288	1	96
HLD	31	48	0	96
HLD	31	192	7	96
HLD	31	336	6	48
TAP	32	48	7
HLD	32	96	7	96
TAP	32	240	0
HLD	32	288	0	96
TAP	33	48	1
HLD	33	96	1	96
TAP	33	240	0
TAP	33	288	0
HLD	34	0	7	96
HLD	34	144	6	96
HLD	34	288	5	96
HLD	35	48	4	96
TAP	35	192	3
STR	35	288	4
SI_	35	288	4	96	24	7
TAP	36	0	4
TAP	37	0	5
TAP	37	24	4
TAP	37	48	5
TAP	37	72	2
TAP	37	96	3
TAP	37	120	2
TAP	37	144	7
TAP	37	168	0
TAP	37	192	6
TAP	37	216	1
TAP	37	240	4
TAP	37	264	3
BST	37	288	7
SI_	37	288	7	96	48	2
TAP	38	0	3
TAP	38	48	4
TAP	38	72	4
TAP	38	144	3
TAP	38	144	7
TAP	38	192	1
TAP	38	192	4
TAP	38	240	2
TAP	38	264	3
STR	38	288	1
SI_	38	288	1	96	48	6
TAP	38	312	3
TAP	38	336	2
STR	39	0	5
SI_	39	0	5	96	48	2
TAP	39	48	4
STR	39	96	0
SI_	39	96	0	96	48	5
TAP	39	144	1
TAP	39	192	0
TAP	39	192	5
TAP	39	240	4
STR	39	288	2
SI_	39	288	2	96	48	6
TAP	39	312	3
TAP	39	336	2
TAP	39	360	3
TAP	40	0	2
TAP	40	48	0
TAP	40	72	0
TAP	40	144	3
TAP	40	144	7
TAP	40	192	0
TAP	40	192	5
TAP	40	240	6
TAP	40	264	7
STR	40	288	5
SI_	40	288	5	96	48	0
TAP	40	312	7
TAP	40	336	6
STR	41	0	2
SI_	41	0	2	96	48	7
TAP	41	48	1
TAP	41	96	4
TAP	41	144	3
TAP	41	192	1
TAP	41	192	5
TAP	41	288	2
TAP	41	312	3
TAP	41	336	2
TAP	41	360	3
STR	42	0	1
SCL	42	0	1	96	48	6
TAP	42	48	7
STR	42	96	3
SI_	42	96	3	96	48	7
TAP	42	144	4
STR	42	192	5
SCL	42	192	5	96	48	2
TAP	42	240	6
STR	42	288	0
SI_	42	288	0	96	48	6
STR	42	336	1
SI_	42	336	1	96	48	5
STR	43	0	0
SI_	43	0	0	96	48	4
TAP	43	48	1
TAP	43	96	0
TAP	43	144	1
TAP	43	192	2
TAP	43	192	6
STR	43	288	5
SI_	43	288	5	96	48	0
TAP	43	312	4
TAP	43	336	5
STR	44	0	2
SI_	44	0	2	96	48	5
TAP	44	48	1
STR	44	96	7
SI_	44	96	7	96	48	3
TAP	44	144	6
TAP	44	192	5
TAP	44	240	4
TAP	44	288	1
TAP	44	312	0
TAP	44	336	1
TAP	44	360	0
TAP	45	0	2
TAP	45	0	7
TAP	45	48	1
TAP	45	72	3
TAP	45	96	2
TAP	45	120	7
TAP	45	144	0
TAP	45	168	6
TAP	45	192	2
TAP	45	216	4
TAP	45	240	3
TAP	45	264	5
BST	45	288	0
SI_	45	288	0	96	48	5
TAP	46	0	4
TAP	46	48	3
TAP	46	72	3
TAP	46	144	0
TAP	46	144	4
TAP	46	192	3
TAP	46	192	6
TAP	46	240	5
TAP	46	264	4
STR	46	288	6
SI_	46	288	6	96	48	3
TAP	46	312	4
TAP	46	336	5
STR	47	0	2
SI_	47	0	2	96	48	7
TAP	47	48	1
STR	47	96	4
SI_	47	96	4	96	48	0
TAP	47	144	5
TAP	47	192	1
TAP	47	192	4
TAP	47	240	2
STR	47	288	5
SI_	47	288	5	96	48	1
TAP	47	312	4
TAP	47	336	5
TAP	47	360	4
TAP	48	0	5
TAP	48	48	7
TAP	48	72	7
TAP	48	144	0
TAP	48	144	4
TAP	48	192	2
TAP	48	192	7
TAP	48	240	1
TAP	48	264	0
STR	48	288	2
SI_	48	288	2	96	48	7
TAP	48	312	0
TAP	48	336	1
STR	49	0	5
SI_	49	0	5	96	48	0
TAP	49	48	6
TAP	49	96	3
TAP	49	144	4
TAP	49	192	2
TAP	49	192	6
TAP	49	288	5
TAP	49	312	4
TAP	49	336	5
TAP	49	360	4
HLD	50	0	6	72
TAP	50	72	7
TAP	50	96	6
TAP	50	144	0
TAP	50	144	5
TAP	50	192	1
TAP	50	216	2
TAP	50	240	3
TAP	50	264	4
TAP	50	288	1
TAP	50	312	2
TAP	50	336	3
TAP	50	360	4
HLD	51	0	1	72
TAP	51	72	0
TAP	51	96	1
TAP	51	144	2
TAP	51	144	7
TAP	51	192	6
TAP	51	216	5
TAP	51	240	4
TAP	51	264	3
TAP	51	288	6
TAP	51	312	5
TAP	51	336	4
TAP	51	360	3
HLD	52	0	6	72
TAP	52	72	7
TAP	52	96	6
TAP	52	144	0
TAP	52	144	5
TAP	52	192	1
TAP	52	216	0
TAP	52	240	7
TAP	52	264	6
TAP	52	288	1
TAP	52	312	0
TAP	52	336	7
TAP	52	360	6
HLD	53	0	0	72
TAP	53	72	3
TAP	53	96	2
TAP	53	144	1
TAP	53	144	4
TAP	53	192	2
TAP	53	192	5
TAP	53	240	3
TAP	53	240	6
TAP	53	288	4
STR	53	288	7
SCL	53	288	7	96	96	3
STR	54	0	3
SCL	54	0	3	96	96	7
STR	54	96	7
SCL	54	96	7	96	96	3
STR	54	192	3
SCL	54	192	3	96	96	7
STR	54	288	7
SCL	54	288	7	96	96	3
STR	55	0	3
SCL	55	0	3	96	96	7
STR	55	96	7
SCL	55	96	7	96	96	3
TAP	55	192	3
TAP	55	288	0
TAP	56	0	2
TAP	56	0	7
TAP	56	48	1
TAP	56	72	0
TAP	56	120	0
TAP	56	144	1
TAP	56	192	0
TAP	56	192	5
TAP	56	240	6
TAP	56	264	7
TAP	56	312	7
TAP	56	336	6
TAP	57	0	2
TAP	57	24	3
TAP	57	48	2
TAP	57	72	5
TAP	57	96	4
TAP	57	120	5
TAP	57	144	0
TAP	57	168	7
TAP	57	192	1
TAP	57	216	6
TAP	57	240	3
TAP	57	264	4
BRK	57	288	1
BRK	57	288	6
TAP	58	0	1
TAP	58	0	2
TAP	58	96	5
TAP	58	96	6
HLD	58	192	1	48
HLD	58	192	3	48
HLD	58	264	3	48
HLD	58	264	4	48
HLD	58	336	4	48
HLD	58	336	6	48
TAP	59	48	6
TAP	59	48	7
TAP	59	96	0
TAP	59	96	5
TAP	59	144	1
TAP	59	144	4
TAP	59	192	3
TAP	59	192	6
TAP	59	240	3
TAP	59	240	6
TAP	59	256	2
TAP	59	256	5
TAP	59	272	1
TAP	59	272	4
TAP	59	288	0
TAP	59	288	3
TAP	59	336	6
TAP	59	336	7
TAP	60	0	0
TAP	60	0	5
TAP	60	96	2
TAP	60	96	7
HLD	60	192	1	48
HLD	60	192	3	48
HLD	60	264	3	48
HLD	60	264	4	48
HLD	60	336	4	48
HLD	60	336	6	48
STR	61	48	0
SSL	61	48	0	96	48	4
TAP	61	48	7
TAP	61	96	0
TAP	61	96	7
TAP	62	0	5
TAP	62	0	6
TAP	62	96	1
TAP	62	96	2
HLD	62	192	4	48
HLD	62	192	6	48
HLD	62	264	3	48
HLD	62	264	4	48
HLD	62	336	1	48
HLD	62	336	3	48
TAP	63	48	0
TAP	63	48	1
TAP	63	96	2
TAP	63	96	7
TAP	63	144	3
TAP	63	144	6
TAP	63	192	1
TAP	63	192	4
TAP	63	240	1
TAP	63	240	4
TAP	63	256	2
TAP	63	256	5
TAP	63	272	3
TAP	63	272	6
TAP	63	288	4
TAP	63	288	7
TAP	63	336	0
TAP	63	336	1
TAP	64	0	2
TAP	64	0	7
TAP	64	96	0
TAP	64	96	5
HLD	64	192	4	48
HLD	64	192	6	48
HLD	64	264	3	48
HLD	64	264	4	48
HLD	64	336	1	48
HLD	64	336	3	48
TAP	65	48	1
TAP	65	48	7
TAP	65	96	1
TAP	65	96	7
TAP	65	192	0
TAP	65	216	0
TAP	65	240	0
TAP	65	264	0
TAP	65	288	0
TAP	65	312	0
TAP	65	336	0
TAP	65	360	0
STR	66	0	0
SLR	66	0	0	96	48	4
STR	66	192	0
SLL	66	192	0	96	48	4
STR	67	0	0
SI_	67	0	0	96	48	3
STR	67	96	0
SI_	67	96	0	96	48	5
TAP	67	192	0
STR	67	288	0
SLR	67	288	0	96	96	4
TAP	67	288	7
STR	68	0	4
SLR	68	0	4	96	96	0
STR	68	96	0
SLR	68	96	0	96	96	4
STR	68	192	4
SLR	68	192	4	96	96	0
STR	68	288	0
SLR	68	288	0	96	96	6
TAP	69	0	4
STR	69	96	0
SI_	69	96	0	96	48	3
SI_	69	96	0	96	48	5
TAP	69	192	0
TAP	69	288	2
TAP	69	288	6
STR	70	0	1
SI_	70	0	1	96	48	4
TAP	70	0	7
TAP	70	48	0
TAP	70	72	7
TAP	70	96	1
TAP	70	144	0
TAP	70	192	2
TAP	70	192	6
TAP	70	240	5
TAP	70	264	4
TAP	70	264	6
TAP	70	312	2
TAP	70	336	1
TAP	70	336	3
TAP	71	0	0
STR	71	0	6
SI_	71	0	6	96	48	3
TAP	71	48	7
TAP	71	72	0
TAP	71	96	6
TAP	71	144	7
TAP	71	192	1
TAP	71	192	5
TAP	71	240	2
TAP	71	264	1
TAP	71	264	3
TAP	71	312	5
TAP	71	336	4
TAP	71	336	6
STR	72	0	0
SF_	72	0	0	96	48	4
STR	72	192	7
SF_	72	192	7	96	48	3
STR	73	0	0
SCL	73	0	0	96	48	5
SCR	73	0	0	96	48	3
STR	73	96	0
SI_	73	96	0	96	48	4
SSL	73	96	0	96	48	4
TAP	73	192	0
TAP	73	288	2
TAP	73	288	6
TAP	74	0	0
TAP	74	0	7
TAP	74	96	2
TAP	74	96	5
TAP	74	192	1
TAP	74	192	7
TAP	74	240	0
TAP	74	264	7
TAP	74	312	7
TAP	74	336	5
TAP	75	0	5
TAP	75	24	3
TAP	75	72	3
TAP	75	96	1
TAP	75	144	0
TAP	75	144	1
TAP	75	192	0
TAP	75	192	7
TAP	75	240	2
TAP	75	264	3
TAP	75	312	3
TAP	75	336	5
TAP	76	0	5
TAP	76	24	7
TAP	76	72	7
TAP	76	96	1
TAP	76	144	1
TAP	76	144	2
TAP	76	192	3
TAP	76	192	4
TAP	76	240	5
TAP	76	240	6
TAP	76	288	0
TAP	76	288	7
TAP	76	336	1
TAP	76	336	3
TAP	77	0	2
TAP	77	24	2
TAP	77	48	2
TAP	77	72	2
TAP	77	96	2
TAP	77	144	1
TAP	77	144	7
TAP	77	192	0
TAP	77	192	6
TAP	77	240	3
TAP	77	240	4
HLD	77	288	1	48
HLD	77	288	6	48
TAP	78	0	0
TAP	78	0	7
TAP	78	96	2
TAP	78	96	5
TAP	78	192	0
TAP	78	192	6
TAP	78	240	7
TAP	78	264	0
TAP	78	312	0
TAP	78	336	2
TAP	79	0	2
TAP	79	24	4
TAP	79	72	4
TAP	79	96	6
TAP	79	144	6
TAP	79	144	7
TAP	79	192	0
TAP	79	192	7
TAP	79	240	5
TAP	79	264	4
TAP	79	312	4
TAP	79	336	2
TAP	80	0	2
TAP	80	24	0
TAP	80	72	0
TAP	80	96	6
TAP	80	144	5
TAP	80	144	6
TAP	80	192	3
TAP	80	192	4
TAP	80	240	1
TAP	80	240	2
TAP	80	288	0
TAP	80	288	7
TAP	80	336	4
TAP	80	336	6
TAP	81	0	7
TAP	81	24	0
TAP	81	96	1
TAP	81	96	2
TAP	81	144	1
TAP	81	144	2
TAP	81	192	0
TAP	81	192	3
TAP	81	240	4
TAP	81	240	7
STR	81	288	5
SI_	81	288	5	96	24	1
STR	81	288	6
SI_	81	288	6	96	24	2
TAP	81	336	4
TAP	81	336	7
BST	82	0	5
SCL	82	0	5	96	1056	6
BST	82	0	6
SCR	82	0	6	96	1056	5

T_REC_TAP	564
T_REC_BRK	4
T_REC_XTP	0
T_REC_HLD	48
T_REC_XHO	0
T_REC_STR	78
T_REC_BST	4
T_REC_XST	0
T_REC_TTP	0
T_REC_THO	0
T_REC_SLD	86
T_REC_ALL	784
T_NUM_TAP	642
T_NUM_BRK	8
T_NUM_HLD	48
T_NUM_SLD	86
T_NUM_ALL	784
T_JUDGE_TAP	650
T_JUDGE_HLD	80
T_JUDGE_SLD	86
T_JUDGE_ALL	816
TTM_EACHPAIRS	141
TTM_SCR_TAP	321000
TTM_SCR_BRK	20800
TTM_SCR_HLD	48000
TTM_SCR_SLD	129000
TTM_SCR_ALL	518800
TTM_SCR_S	502500
TTM_SCR_SS	518000
TTM_RAT_ACV	10015

