VERSION	0.00.00	1.03.00
FES_MODE	0
BPM_DEF	165.000	165.000	165.000	165.000
MET_DEF	4	4
RESOLUTION	384
CLK_DEF	384
COMPATIBLE_CODE	MA2

BPM	0	0	165.000
MET	0	0	4	4
CLK	0	0
CLK	0	96
CLK	0	192
CLK	0	288

TAP	2	0	4
TAP	2	48	4
HLD	2	96	2	96
TAP	2	192	3
TAP	2	288	2
TAP	2	288	4
TAP	3	0	5
TAP	3	48	5
HLD	3	96	3	96
STR	3	192	4
SI_	3	192	4	96	48	6
TAP	4	0	3
TAP	4	48	3
HLD	4	96	5	96
TAP	4	192	4
TAP	4	288	3
TAP	4	288	5
TAP	5	0	2
TAP	5	48	2
HLD	5	96	4	96
STR	5	192	3
SCL	5	192	3	96	48	0
TAP	6	0	7
TAP	6	48	7
TAP	6	96	0
HLD	6	96	6	96
TAP	6	192	4
TAP	6	288	3
TAP	6	288	5
TAP	7	0	0
TAP	7	48	0
HLD	7	96	1	96
TAP	7	96	7
TAP	7	192	3
TAP	7	288	2
TAP	7	288	4
TAP	8	0	3
STR	8	0	5
SI_	8	0	5	96	48	7
STR	8	192	2
SI_	8	192	2	96	48	0
TAP	8	192	4
TAP	9	0	7
TAP	9	48	7
TAP	9	96	0
TAP	9	144	0
TAP	9	192	0
TAP	9	192	7
BRK	9	288	1
BRK	9	288	6
TAP	10	0	2
TAP	10	0	4
TAP	10	96	3
TAP	10	96	5
HLD	10	192	2	48
HLD	10	192	4	48
TAP	10	264	2
TAP	10	264	4
HLD	10	336	3	48
HLD	10	336	5	48
TAP	11	24	3
TAP	11	24	5
TAP	11	96	2
TAP	11	144	2
HLD	11	192	1	48
HLD	11	192	3	48
TAP	11	264	1
TAP	11	264	3
HLD	11	336	4	48
HLD	11	336	6	48
TAP	12	24	4
TAP	12	24	6
TAP	12	96	5
TAP	12	144	5
TAP	12	192	6
TAP	12	240	7
TAP	12	288	0
TAP	12	336	1
TAP	12	336	7
TAP	13	0	2
TAP	13	48	2
TAP	13	96	4
TAP	13	144	4
TAP	13	192	3
TAP	13	192	5
TAP	13	240	3
TAP	13	240	5
BRK	13	288	0
BRK	13	288	7
TAP	14	0	3
TAP	14	0	5
TAP	14	96	2
TAP	14	96	4
HLD	14	192	3	48
HLD	14	192	5	48
TAP	14	264	3
TAP	14	264	5
HLD	14	336	2	48
HLD	14	336	4	48
TAP	15	24	2
TAP	15	24	4
TAP	15	96	5
TAP	15	144	5
HLD	15	192	4	48
HLD	15	192	6	48
TAP	15	264	4
TAP	15	264	6
HLD	15	336	1	48
HLD	15	336	3	48
TAP	16	24	1
TAP	16	24	3
TAP	16	96	2
TAP	16	144	2
TAP	16	192	1
TAP	16	240	0
STR	16	288	7
SSR	16	288	7	96	120	3
TAP	17	0	3
BRK	17	288	2
BRK	17	288	5
TAP	18	0	6
TAP	18	48	6
STR	18	96	4
SI_	18	96	4	96	48	0
STR	18	192	6
SI_	18	192	6	96	48	4
TAP	18	288	2
TAP	19	0	1
TAP	19	48	1
STR	19	96	3
SI_	19	96	3	96	48	7
STR	19	192	1
SI_	19	192	1	96	48	3
TAP	19	288	5
TAP	20	0	6
TAP	20	48	6
STR	20	96	4
SI_	20	96	4	96	48	0
STR	20	192	6
SI_	20	192	6	96	48	4
TAP	20	288	2
TAP	21	0	1
TAP	21	48	1
STR	21	96	3
SI_	21	96	3	96	48	7
TAP	21	192	0
BRK	21	288	1
BRK	21	288	5
TAP	22	0	6
TAP	22	48	6
STR	22	96	4
SI_	22	96	4	96	48	0
STR	22	192	7
SCL	22	192	7	96	48	4
TAP	22	288	2
TAP	23	0	1
TAP	23	48	1
STR	23	96	3
SI_	23	96	3	96	48	7
STR	23	192	0
SCR	23	192	0	96	48	3
TAP	23	288	5
TAP	24	0	6
TAP	24	48	6
STR	24	96	4
SI_	24	96	4	96	48	0
STR	24	192	7
SCL	24	192	7	96	48	4
TAP	24	288	2
TAP	25	0	1
TAP	25	48	1
STR	25	96	2
SI_	25	96	2	96	48	6
STR	25	96	5
SI_	25	96	5	96	48	1
TAP	25	288	3
TAP	25	288	4
HLD	26	0	0	3840
TAP	26	0	6
TAP	26	192	2
TAP	27	0	4
TAP	27	72	4
TAP	27	144	4
TAP	27	192	2
TAP	28	0	5
TAP	28	192	3
TAP	29	0	4
TAP	29	72	4
TAP	29	144	4
TAP	29	192	2
TAP	29	288	3
HLD	30	0	4	96
HLD	30	144	4	96
HLD	30	288	2	96
HLD	31	48	2	96
HLD	31	192	5	96
TAP	31	336	3
TAP	32	48	1
HLD	32	96	1	96
TAP	32	240	2
HLD	32	288	2	96
TAP	33	48	3
HLD	33	96	3	96
TAP	33	240	4
TAP	33	288	4
HLD	34	0	3	96
HLD	34	144	4	96
HLD	34	288	5	96
HLD	35	48	6	96
TAP	35	192	7
TAP	35	288	1
BST	36	0	1
SCR	36	0	1	96	192	7
STR	37	0	3
SF_	37	0	3	96	96	7
BRK	37	288	1
BRK	37	288	5
TAP	38	0	2
TAP	38	0	4
TAP	38	48	1
TAP	38	96	0
TAP	38	96	7
TAP	38	144	6
HLD	38	192	4	96
TAP	38	192	5
STR	38	288	2
SI_	38	288	2	96	48	6
STR	39	0	0
SI_	39	0	0	96	48	2
STR	39	96	3
SI_	39	96	3	96	48	7
TAP	39	192	1
TAP	39	288	2
TAP	39	288	6
TAP	40	0	3
TAP	40	0	5
TAP	40	48	6
TAP	40	96	0
TAP	40	96	7
TAP	40	144	1
TAP	40	192	2
HLD	40	192	3	96
STR	40	288	5
SI_	40	288	5	96	48	1
STR	41	0	7
SI_	41	0	7	96	48	5
STR	41	96	4
SI_	41	96	4	96	48	0
TAP	41	192	6
TAP	41	288	1
TAP	41	288	5
TAP	42	0	2
TAP	42	48	3
TAP	42	96	0
TAP	42	144	7
TAP	42	192	4
TAP	42	240	5
HLD	42	288	0	96
TAP	43	0	3
TAP	43	48	2
TAP	43	96	7
TAP	43	144	0
HLD	43	192	5	96
TAP	43	288	4
TAP	44	0	1
HLD	44	48	1	96
TAP	44	96	3
HLD	44	144	3	96
TAP	44	192	4
HLD	44	240	4	96
TAP	44	288	6
HLD	44	336	6	48
STR	45	0	7
SCR	45	0	7	96	96	4
BRK	45	288	2
BRK	45	288	6
TAP	46	0	3
TAP	46	0	5
TAP	46	48	6
TAP	46	96	0
TAP	46	96	7
TAP	46	144	1
TAP	46	192	2
HLD	46	192	3	96
STR	46	288	5
SI_	46	288	5	96	48	1
STR	47	0	7
SI_	47	0	7	96	48	5
STR	47	96	3
SI_	47	96	3	96	48	7
TAP	47	192	7
TAP	47	288	1
TAP	47	288	5
TAP	48	0	2
TAP	48	0	4
TAP	48	48	1
TAP	48	96	0
TAP	48	96	7
TAP	48	144	6
HLD	48	192	4	96
TAP	48	192	5
STR	48	288	2
SI_	48	288	2	96	48	6
STR	49	0	0
SI_	49	0	0	96	48	2
STR	49	96	4
SI_	49	96	4	96	48	0
TAP	49	192	0
TAP	49	288	2
TAP	49	288	6
TAP	50	0	1
TAP	50	48	1
HLD	50	96	3	96
TAP	50	192	2
TAP	50	216	3
TAP	50	240	2
TAP	50	288	1
TAP	50	288	4
TAP	51	0	6
TAP	51	48	6
HLD	51	96	4	96
TAP	51	192	5
TAP	51	216	4
TAP	51	240	5
TAP	51	288	3
TAP	51	288	6
TAP	52	0	1
TAP	52	48	1
HLD	52	96	3	96
TAP	52	192	2
TAP	52	216	3
TAP	52	240	2
STR	52	288	1
SI_	52	288	1	96	48	3
TAP	52	288	4
STR	53	0	5
SI_	53	0	5	96	48	7
STR	53	96	4
SI_	53	96	4	96	48	0
TAP	53	192	6
TAP	53	288	1
TAP	53	288	5
STR	54	0	3
SCL	54	0	3	96	144	6
TAP	54	96	5
TAP	54	192	5
TAP	54	288	5
STR	55	0	4
SCR	55	0	4	96	144	1
TAP	55	96	2
TAP	55	192	2
TAP	55	288	2
TAP	56	0	4
TAP	56	48	4
TAP	56	96	3
TAP	56	144	3
TAP	56	192	6
TAP	56	240	6
TAP	56	288	1
TAP	56	336	1
TAP	57	0	7
TAP	57	24	0
TAP	57	48	7
TAP	57	72	0
TAP	57	96	7
TAP	57	120	0
TAP	57	144	7
TAP	57	168	0
TAP	57	192	7
BRK	57	288	1
BRK	57	288	6
TAP	58	0	3
TAP	58	0	5
TAP	58	96	2
TAP	58	96	4
HLD	58	192	3	48
HLD	58	192	5	48
HLD	58	264	2	48
HLD	58	264	4	48
TAP	58	336	1
TAP	58	336	5
TAP	59	48	6
STR	59	96	6
SSR	59	96	6	96	96	2
TAP	59	192	2
TAP	60	0	1
TAP	60	0	4
TAP	60	96	3
TAP	60	96	6
HLD	60	192	1	72
HLD	60	264	2	72
HLD	60	336	3	96
TAP	61	48	4
STR	61	96	4
SCL	61	96	4	96	120	6
TAP	62	0	2
TAP	62	0	4
TAP	62	96	3
TAP	62	96	5
HLD	62	192	2	48
HLD	62	192	4	48
HLD	62	264	3	48
HLD	62	264	5	48
TAP	62	336	2
TAP	62	336	6
TAP	63	48	1
STR	63	96	1
SI_	63	96	1	96	48	5
TAP	63	192	5
TAP	63	288	4
TAP	63	288	6
TAP	64	0	0
TAP	64	0	7
TAP	64	96	1
TAP	64	96	3
HLD	64	192	4	72
HLD	64	264	5	72
HLD	64	336	6	96
TAP	65	48	0
STR	65	96	0
SCR	65	96	0	96	120	5
TAP	66	0	0
HLD	66	0	7	96
HLD	66	192	1	96
TAP	66	192	4
HLD	67	0	3	48
HLD	67	0	6	48
HLD	67	96	1	48
HLD	67	96	4	48
TAP	67	192	2
TAP	67	192	5
TAP	67	240	2
TAP	67	240	5
TAP	67	288	1
STR	67	288	6
SCR	67	288	6	96	480	5
HLD	68	0	0	480
TAP	69	192	3
TAP	69	192	7
BRK	69	288	1
BRK	69	288	5
TAP	70	0	0
TAP	70	0	6
TAP	70	48	5
TAP	70	96	3
TAP	70	96	4
TAP	70	144	2
HLD	70	192	0	96
TAP	70	192	1
STR	70	288	7
SI_	70	288	7	96	48	3
STR	71	0	5
SI_	71	0	5	96	48	7
STR	71	96	4
SI_	71	96	4	96	48	0
TAP	71	192	6
TAP	71	288	2
TAP	71	288	6
STR	72	0	4
SI_	72	0	4	96	48	0
STR	72	0	5
SI_	72	0	5	96	48	0
STR	72	192	2
SI_	72	192	2	96	48	7
STR	72	192	3
SI_	72	192	3	96	48	7
TAP	73	0	4
TAP	73	0	5
TAP	73	96	2
TAP	73	96	3
TAP	73	192	0
TAP	73	192	7
TAP	73	240	0
TAP	73	240	7
BRK	73	288	1
BRK	73	288	6
TAP	74	0	3
TAP	74	0	5
TAP	74	96	2
TAP	74	96	4
HLD	74	192	3	48
HLD	74	192	5	48
TAP	74	264	2
TAP	74	264	6
HLD	74	336	2	48
HLD	74	336	4	48
TAP	75	24	1
TAP	75	24	5
TAP	75	96	6
TAP	75	144	6
HLD	75	192	4	48
HLD	75	192	6	48
TAP	75	264	3
TAP	75	264	7
HLD	75	336	1	48
HLD	75	336	3	48
TAP	76	24	0
TAP	76	24	4
TAP	76	96	1
TAP	76	144	1
TAP	76	192	0
TAP	76	192	7
TAP	76	240	0
TAP	76	240	7
TAP	76	288	0
TAP	76	288	7
STR	76	336	0
SI_	76	336	0	96	48	4
STR	76	336	7
SI_	76	336	7	96	48	3
TAP	77	192	1
TAP	77	192	6
TAP	77	240	1
TAP	77	240	6
BRK	77	288	0
BRK	77	288	7
TAP	78	0	2
TAP	78	0	4
TAP	78	96	3
TAP	78	96	5
HLD	78	192	2	48
HLD	78	192	4	48
TAP	78	264	1
TAP	78	264	5
HLD	78	336	3	48
HLD	78	336	5	48
TAP	79	24	2
TAP	79	24	6
TAP	79	96	1
TAP	79	144	1
HLD	79	192	1	48
HLD	79	192	3	48
TAP	79	264	0
TAP	79	264	4
HLD	79	336	4	48
HLD	79	336	6	48
TAP	80	24	3
TAP	80	24	7
TAP	80	96	6
TAP	80	144	6
TAP	80	192	0
TAP	80	240	1
TAP	80	240	7
TAP	80	288	2
TAP	80	288	6
TAP	80	336	3
TAP	80	336	5
BST	81	0	4
SLL	81	0	4	96	96	0
SLR	81	0	4	96	96	0
TAP	81	288	2
TAP	81	288	6
TAP	81	336	2
TAP	81	336	6
BST	82	0	3
SCL	82	0	3	96	672	4
BST	82	0	4
SCR	82	0	4	96	672	3

T_REC_TAP	337
T_REC_BRK	20
T_REC_XTP	0
T_REC_HLD	86
T_REC_XHO	0
T_REC_STR	53
T_REC_BST	4
T_REC_XST	0
T_REC_TTP	0
T_REC_THO	0
T_REC_SLD	58
T_REC_ALL	558
T_NUM_TAP	390
T_NUM_BRK	24
T_NUM_HLD	86
T_NUM_SLD	58
T_NUM_ALL	558
T_JUDGE_TAP	414
T_JUDGE_HLD	213
T_JUDGE_SLD	58
T_JUDGE_ALL	685
TTM_EACHPAIRS	130
TTM_SCR_TAP	195000
TTM_SCR_BRK	62400
TTM_SCR_HLD	86000
TTM_SCR_SLD	87000
TTM_SCR_ALL	430400
TTM_SCR_S	415200
TTM_SCR_SS	428000
TTM_RAT_ACV	10056

