VERSION	0.00.00	1.03.00
FES_MODE	0
BPM_DEF	165.000	165.000	165.000	165.000
MET_DEF	4	4
RESOLUTION	384
CLK_DEF	384
COMPATIBLE_CODE	MA2

BPM	0	0	165.000
MET	0	0	4	4
CLK	0	0
CLK	0	96
CLK	0	192
CLK	0	288

HLD	2	0	2	192
TAP	2	192	3
TAP	2	288	4
HLD	3	0	5	192
TAP	3	192	4
TAP	3	288	4
TAP	3	288	5
HLD	4	0	6	192
TAP	4	192	7
TAP	4	288	0
HLD	5	0	1	192
TAP	5	192	0
TAP	5	288	0
TAP	5	288	1
TAP	6	0	2
TAP	6	96	2
TAP	6	192	2
TAP	6	192	3
TAP	7	0	5
TAP	7	96	5
TAP	7	192	4
TAP	7	192	5
HLD	8	0	6	96
HLD	8	0	7	96
HLD	8	192	0	96
HLD	8	192	1	96
TAP	9	0	7
TAP	9	96	0
TAP	9	96	7
BRK	9	192	1
BRK	9	192	6
TAP	10	0	0
TAP	10	0	1
TAP	10	96	0
TAP	10	96	1
TAP	10	192	2
TAP	10	288	3
TAP	11	0	4
TAP	11	96	5
TAP	11	192	6
TAP	11	192	7
TAP	11	288	6
TAP	11	288	7
TAP	12	0	5
TAP	12	96	4
TAP	12	192	3
TAP	12	288	2
TAP	13	0	0
TAP	13	0	1
TAP	13	96	2
TAP	13	96	7
BRK	13	192	3
BRK	13	192	6
TAP	14	0	4
TAP	14	0	5
TAP	14	96	4
TAP	14	96	5
TAP	14	192	6
TAP	14	288	7
TAP	15	0	0
TAP	15	96	1
TAP	15	192	2
TAP	15	192	3
TAP	15	288	2
TAP	15	288	3
TAP	16	0	1
TAP	16	96	0
TAP	16	192	7
TAP	16	288	6
STR	17	0	0
SI_	17	0	0	96	144	4
STR	17	0	7
SI_	17	0	7	96	144	3
BRK	18	0	2
TAP	18	96	2
TAP	18	192	2
TAP	18	192	3
TAP	18	288	2
TAP	18	288	3
TAP	19	0	5
TAP	19	96	5
TAP	19	192	4
TAP	19	192	5
TAP	19	288	4
TAP	19	288	5
TAP	20	0	6
TAP	20	96	6
TAP	20	96	7
TAP	20	192	1
TAP	20	288	0
TAP	20	288	1
TAP	21	0	2
TAP	21	96	2
TAP	21	96	3
TAP	21	192	1
TAP	21	192	4
TAP	22	0	5
TAP	22	96	5
TAP	22	192	4
TAP	22	192	5
TAP	22	288	4
TAP	22	288	5
TAP	23	0	2
TAP	23	96	2
TAP	23	192	2
TAP	23	192	3
TAP	23	288	2
TAP	23	288	3
TAP	24	0	1
TAP	24	96	0
TAP	24	96	1
TAP	24	192	6
TAP	24	288	6
TAP	24	288	7
TAP	25	0	5
TAP	25	96	3
TAP	25	96	4
BRK	25	192	2
BRK	25	192	5
HLD	26	0	1	192
TAP	26	192	0
HLD	27	0	6	192
TAP	27	192	7
HLD	28	0	1	192
TAP	28	192	0
HLD	29	0	6	96
HLD	29	0	7	96
TAP	29	192	6
TAP	29	192	7
HLD	30	0	5	288
HLD	30	288	4	288
HLD	31	192	3	288
TAP	32	96	2
TAP	32	288	0
TAP	32	288	1
TAP	33	96	6
TAP	33	96	7
TAP	33	288	3
TAP	33	288	5
TAP	34	0	3
TAP	34	0	5
TAP	34	192	2
TAP	34	192	4
TAP	34	288	2
TAP	34	288	4
TAP	35	96	3
TAP	35	96	4
TAP	35	192	2
TAP	35	192	5
TAP	35	288	1
TAP	35	288	6
BRK	36	0	0
BRK	36	0	7
STR	37	0	5
SCL	37	0	5	96	144	2
TAP	38	0	1
TAP	38	48	1
TAP	38	96	1
TAP	38	192	0
TAP	38	192	1
TAP	38	288	0
TAP	38	288	1
TAP	39	0	2
TAP	39	96	2
TAP	39	96	3
TAP	39	192	1
TAP	39	192	4
TAP	40	0	5
TAP	40	48	5
TAP	40	96	5
TAP	40	192	4
TAP	40	192	5
TAP	40	288	4
TAP	40	288	5
TAP	41	0	6
TAP	41	96	0
TAP	41	96	7
TAP	41	192	1
TAP	41	192	6
TAP	42	0	2
TAP	42	48	2
TAP	42	96	2
TAP	42	192	1
TAP	42	192	3
TAP	42	288	2
TAP	42	288	4
TAP	43	0	5
TAP	43	48	5
TAP	43	96	5
TAP	43	192	4
TAP	43	192	6
TAP	43	288	3
TAP	43	288	5
HLD	44	0	2	96
TAP	44	96	3
HLD	44	192	5	96
TAP	44	288	4
STR	45	0	3
SCL	45	0	3	96	192	7
TAP	46	0	6
TAP	46	48	6
TAP	46	96	6
TAP	46	192	6
TAP	46	192	7
TAP	46	288	6
TAP	46	288	7
TAP	47	0	5
TAP	47	96	4
TAP	47	96	5
TAP	47	192	3
TAP	47	192	6
TAP	48	0	2
TAP	48	48	2
TAP	48	96	2
TAP	48	192	2
TAP	48	192	3
TAP	48	288	2
TAP	48	288	3
TAP	49	0	1
TAP	49	96	0
TAP	49	96	7
TAP	49	192	1
TAP	49	192	6
TAP	50	0	5
TAP	50	96	4
TAP	50	96	6
TAP	50	192	5
TAP	50	240	5
TAP	50	288	5
TAP	51	0	2
TAP	51	96	1
TAP	51	96	3
TAP	51	192	2
TAP	51	240	2
TAP	51	288	2
TAP	52	0	5
TAP	52	48	5
TAP	52	96	4
TAP	52	192	2
TAP	52	240	2
TAP	52	288	3
TAP	53	0	2
TAP	53	0	4
TAP	53	96	1
TAP	53	96	5
TAP	53	192	0
TAP	53	192	6
TAP	53	288	7
STR	54	0	7
SCL	54	0	7	96	144	4
STR	55	0	3
SCL	55	0	3	96	144	0
TAP	56	0	7
TAP	56	48	7
TAP	56	96	7
TAP	56	192	0
TAP	56	240	0
TAP	56	288	0
TAP	57	0	0
TAP	57	0	7
TAP	57	48	0
TAP	57	48	7
TAP	57	96	0
TAP	57	96	7
BRK	57	192	1
BRK	57	192	6
TAP	58	0	5
TAP	58	96	5
TAP	58	192	6
TAP	58	288	6
STR	59	0	7
SI_	59	0	7	96	144	3
TAP	60	0	2
TAP	60	96	3
TAP	60	192	4
TAP	60	288	5
STR	61	0	6
SCL	61	0	6	96	144	3
TAP	62	0	2
TAP	62	96	2
TAP	62	192	1
TAP	62	288	1
STR	63	0	0
SI_	63	0	0	96	144	4
TAP	64	0	5
TAP	64	96	4
TAP	64	192	3
TAP	64	288	2
TAP	65	0	3
TAP	65	0	4
TAP	65	96	3
TAP	65	96	4
TAP	65	192	2
TAP	65	192	5
TAP	66	0	6
TAP	66	0	7
TAP	66	192	0
TAP	66	192	1
TAP	67	0	0
TAP	67	0	7
TAP	67	96	0
TAP	67	96	7
TAP	67	192	1
TAP	67	192	6
STR	68	0	7
SCL	68	0	7	96	480	0
BRK	70	0	1
TAP	70	48	1
TAP	70	96	1
TAP	70	192	0
TAP	70	192	1
TAP	70	288	2
TAP	70	288	3
TAP	71	0	5
TAP	71	48	5
TAP	71	96	5
TAP	71	192	6
TAP	71	192	7
TAP	71	288	0
TAP	71	288	1
HLD	72	0	2	96
HLD	72	0	3	96
HLD	72	192	4	96
HLD	72	192	5	96
TAP	73	0	2
TAP	73	0	3
TAP	73	96	2
TAP	73	96	3
TAP	73	192	1
TAP	73	192	4
TAP	74	0	0
TAP	74	0	1
TAP	74	96	0
TAP	74	96	1
TAP	74	192	2
TAP	74	288	3
TAP	75	0	4
TAP	75	96	5
TAP	75	192	6
TAP	75	192	7
TAP	75	288	6
TAP	75	288	7
TAP	76	0	5
TAP	76	96	4
TAP	76	192	3
TAP	76	288	2
TAP	77	0	0
TAP	77	0	1
TAP	77	96	2
TAP	77	96	7
BRK	77	192	3
BRK	77	192	6
TAP	78	0	4
TAP	78	0	5
TAP	78	96	4
TAP	78	96	5
TAP	78	192	6
TAP	78	288	7
TAP	79	0	0
TAP	79	96	1
TAP	79	192	2
TAP	79	192	3
TAP	79	288	2
TAP	79	288	3
TAP	80	0	1
TAP	80	96	0
TAP	80	192	7
TAP	80	288	6
STR	81	0	0
SCR	81	0	0	96	144	3
STR	81	0	7
SCL	81	0	7	96	144	4
STR	82	0	3
SXR	82	0	3	96	480	0
STR	82	0	4
SXL	82	0	4	96	480	7

T_REC_TAP	312
T_REC_BRK	14
T_REC_XTP	0
T_REC_HLD	22
T_REC_XHO	0
T_REC_STR	14
T_REC_BST	0
T_REC_XST	0
T_REC_TTP	0
T_REC_THO	0
T_REC_SLD	14
T_REC_ALL	376
T_NUM_TAP	326
T_NUM_BRK	14
T_NUM_HLD	22
T_NUM_SLD	14
T_NUM_ALL	376
T_JUDGE_TAP	340
T_JUDGE_HLD	70
T_JUDGE_SLD	14
T_JUDGE_ALL	424
TTM_EACHPAIRS	107
TTM_SCR_TAP	163000
TTM_SCR_BRK	36400
TTM_SCR_HLD	22000
TTM_SCR_SLD	21000
TTM_SCR_ALL	242400
TTM_SCR_S	233800
TTM_SCR_SS	241000
TTM_RAT_ACV	10058

