VERSION	0.00.00	1.03.00
FES_MODE	0
BPM_DEF	165.000	165.000	165.000	165.000
MET_DEF	4	4
RESOLUTION	384
CLK_DEF	384
COMPATIBLE_CODE	MA2

BPM	0	0	165.000
MET	0	0	4	4

TAP	2	0	0
TAP	3	0	0
TAP	4	0	7
TAP	5	0	7
TAP	6	0	0
TAP	7	0	1
TAP	8	0	2
TAP	9	0	3
HLD	10	0	4	384
HLD	12	0	5	384
HLD	14	0	6	384
HLD	16	0	7	384
TAP	18	0	7
TAP	18	192	7
TAP	19	0	6
TAP	20	0	5
TAP	20	192	5
TAP	21	0	4
TAP	22	0	3
TAP	22	192	3
TAP	23	0	2
TAP	24	0	1
TAP	24	192	1
TAP	25	0	0
STR	26	0	0
SI_	26	0	0	96	288	3
STR	28	0	7
SI_	28	0	7	96	288	4
STR	30	0	0
SI_	30	0	0	96	288	4
STR	32	0	7
SI_	32	0	7	96	288	3
STR	34	0	0
SI_	34	0	0	96	288	5
HLD	36	0	7	384
BRK	38	0	0
TAP	38	192	0
TAP	39	0	1
TAP	39	192	1
TAP	40	0	2
TAP	40	192	2
TAP	41	0	3
TAP	41	96	3
TAP	41	192	3
TAP	42	0	4
TAP	42	192	4
TAP	43	0	5
TAP	43	192	5
TAP	44	0	6
TAP	44	192	6
TAP	45	0	7
TAP	45	96	7
TAP	45	192	7
TAP	46	0	6
TAP	46	192	6
TAP	47	0	5
TAP	47	96	5
TAP	47	192	5
TAP	48	0	4
TAP	48	192	4
TAP	49	0	3
TAP	49	96	3
TAP	49	192	3
TAP	50	0	2
TAP	50	192	2
TAP	51	0	1
TAP	51	96	1
TAP	51	192	1
TAP	52	0	0
TAP	52	192	0
TAP	53	0	7
TAP	53	96	7
TAP	53	192	0
TAP	53	192	7
HLD	54	0	0	384
HLD	54	0	1	384
HLD	56	0	6	384
HLD	56	0	7	384
TAP	58	0	0
TAP	58	192	0
TAP	59	0	0
TAP	59	0	1
TAP	60	0	2
TAP	60	192	2
TAP	61	0	2
TAP	61	0	3
TAP	62	0	4
TAP	62	192	4
TAP	63	0	4
TAP	63	0	5
TAP	64	0	6
TAP	64	192	6
TAP	65	0	6
TAP	65	0	7
HLD	66	0	0	384
HLD	66	0	7	384
STR	68	0	0
SI_	68	0	0	96	288	3
STR	68	0	7
SI_	68	0	7	96	288	4
TAP	70	0	2
TAP	70	96	2
TAP	70	192	2
TAP	70	192	3
TAP	71	0	1
TAP	71	96	1
TAP	71	192	0
TAP	71	192	1
TAP	72	0	7
TAP	72	96	7
TAP	72	192	6
TAP	72	192	7
TAP	73	0	5
TAP	73	96	5
TAP	73	192	4
TAP	73	192	5
STR	74	0	3
SI_	74	0	3	96	288	0
STR	76	0	7
SI_	76	0	7	96	288	4
STR	78	0	3
SI_	78	0	3	96	288	0
STR	80	0	7
SI_	80	0	7	96	288	4
BRK	82	0	0

T_REC_TAP	90
T_REC_BRK	2
T_REC_XTP	0
T_REC_HLD	11
T_REC_XHO	0
T_REC_STR	11
T_REC_BST	0
T_REC_XST	0
T_REC_TTP	0
T_REC_THO	0
T_REC_SLD	11
T_REC_ALL	125
T_NUM_TAP	101
T_NUM_BRK	2
T_NUM_HLD	11
T_NUM_SLD	11
T_NUM_ALL	125
T_JUDGE_TAP	103
T_JUDGE_HLD	88
T_JUDGE_SLD	11
T_JUDGE_ALL	202
TTM_EACHPAIRS	13
TTM_SCR_TAP	50500
TTM_SCR_BRK	5200
TTM_SCR_HLD	11000
TTM_SCR_SLD	16500
TTM_SCR_ALL	83200
TTM_SCR_S	80550
TTM_SCR_SS	83000
TTM_RAT_ACV	10024

