VERSION	0.00.00	1.03.00
FES_MODE	0
BPM_DEF	120.000	120.000	120.000	120.000
MET_DEF	4	4
RESOLUTION	384
CLK_DEF	384
COMPATIBLE_CODE	MA2

BPM	0	0	120.000
MET	0	0	4	4

BRK	1	0	0
TAP	1	96	0
TAP	1	192	0
TAP	1	288	0
BRK	2	0	0
TAP	2	96	0
TAP	2	192	0
TAP	2	288	0
BRK	3	0	0
TAP	3	96	0
TAP	3	192	0
TAP	3	288	0
BRK	4	0	0
TAP	4	96	0
TAP	4	192	0
TAP	4	288	0
BRK	5	0	0
TAP	5	96	0
TAP	5	192	0
TAP	5	288	0
BRK	6	0	0
TAP	6	96	0
TAP	6	192	0
TAP	6	288	0
BRK	7	0	0
TAP	7	96	0
TAP	7	192	0
TAP	7	288	0
BRK	8	0	0
TAP	8	96	0
TAP	8	192	0
TAP	8	288	0
BRK	9	0	0
TAP	9	96	0
TAP	9	192	0
TAP	9	288	0
BRK	10	0	0
TAP	10	96	0
TAP	10	192	0
TAP	10	288	0
BRK	11	0	0
TAP	11	96	0
TAP	11	192	0
TAP	11	288	0
BRK	12	0	0
TAP	12	96	0
TAP	12	192	0
TAP	12	288	0
BRK	13	0	0
TAP	13	96	0
TAP	13	192	0
TAP	13	288	0
BRK	14	0	0
TAP	14	96	0
TAP	14	192	0
TAP	14	288	0
BRK	15	0	0
TAP	15	96	0
TAP	15	192	0
TAP	15	288	0
BRK	16	0	0
TAP	16	96	0
TAP	16	192	0
TAP	16	288	0
BRK	17	0	0
TAP	17	96	0
TAP	17	192	0
TAP	17	288	0
BRK	18	0	0
TAP	18	96	0
TAP	18	192	0
TAP	18	288	0
BRK	19	0	0
TAP	19	96	0
TAP	19	192	0
TAP	19	288	0
BRK	20	0	0
TAP	20	96	0
TAP	20	192	0
TAP	20	288	0
BRK	21	0	0
TAP	21	96	0
TAP	21	192	0
TAP	21	288	0
BRK	22	0	0
TAP	22	96	0
TAP	22	192	0
TAP	22	288	0
BRK	23	0	0
TAP	23	96	0
TAP	23	192	0
TAP	23	288	0
BRK	24	0	0
TAP	24	96	0
TAP	24	192	0
TAP	24	288	0
BRK	25	0	0
TAP	25	96	0
TAP	25	192	0
TAP	25	288	0
BRK	26	0	0
TAP	26	96	0
TAP	26	192	0
TAP	26	288	0
BRK	27	0	0
TAP	27	96	0
TAP	27	192	0
TAP	27	288	0
BRK	28	0	0
TAP	28	96	0
TAP	28	192	0
TAP	28	288	0
BRK	29	0	0
TAP	29	96	0
TAP	29	192	0
TAP	29	288	0
BRK	30	0	0
TAP	30	96	0
TAP	30	192	0
TAP	30	288	0
BRK	31	0	0
TAP	31	96	0
TAP	31	192	0
TAP	31	288	0
BRK	32	0	0
TAP	32	96	0
TAP	32	192	0
TAP	32	288	0
BRK	33	0	0

T_REC_TAP	96
T_REC_BRK	33
T_REC_XTP	0
T_REC_HLD	0
T_REC_XHO	0
T_REC_STR	0
T_REC_BST	0
T_REC_XST	0
T_REC_TTP	0
T_REC_THO	0
T_REC_SLD	0
T_REC_ALL	129
T_NUM_TAP	96
T_NUM_BRK	33
T_NUM_HLD	0
T_NUM_SLD	0
T_NUM_ALL	129
T_JUDGE_TAP	129
T_JUDGE_HLD	0
T_JUDGE_SLD	0
T_JUDGE_ALL	129
TTM_EACHPAIRS	0
TTM_SCR_TAP	48000
TTM_SCR_BRK	85800
TTM_SCR_HLD	0
TTM_SCR_SLD	0
TTM_SCR_ALL	133800
TTM_SCR_S	126600
TTM_SCR_SS	130500
TTM_RAT_ACV	10252

