VERSION	0.00.00	1.03.00
FES_MODE	0
BPM_DEF	190.000	190.000	190.000	190.000
MET_DEF	4	4
RESOLUTION	384
CLK_DEF	384
COMPATIBLE_CODE	MA2

BPM	0	0	190.000
MET	0	0	4	4

STR	1	0	0
SI_	1	0	0	96	48	5
TAP	1	48	7
TAP	1	96	6
STR	1	192	4
SI_	1	192	4	96	48	1
TAP	1	192	5
TAP	1	288	7
HLD	1	336	7	144
TAP	2	48	5
STR	2	96	5
SCL	2	96	5	96	48	2
TAP	2	192	7
TAP	2	240	6
TAP	2	288	1
TAP	2	288	5
STR	3	0	7
SI_	3	0	7	96	48	2
TAP	3	48	0
TAP	3	96	1
TAP	3	192	2
STR	3	192	3
SI_	3	192	3	96	48	6
TAP	3	288	0
HLD	3	336	0	144
TAP	4	48	2
STR	4	96	2
SCR	4	96	2	96	48	5
TAP	4	192	0
TAP	4	240	1
TAP	4	288	2
TAP	4	288	6
STR	5	0	0
SI_	5	0	0	96	48	3
TAP	5	48	7
TAP	5	96	6
TAP	5	192	3
STR	5	192	4
SI_	5	192	4	96	48	7
TAP	5	288	0
HLD	5	336	0	144
TAP	6	48	5
STR	6	96	5
SCL	6	96	5	96	48	2
TAP	6	192	7
TAP	6	240	0
TAP	6	288	1
TAP	6	288	6
TAP	7	0	3
TAP	7	24	4
TAP	7	48	3
TAP	7	72	4
TAP	7	96	3
TAP	7	144	3
TAP	7	144	4
TAP	7	192	2
TAP	7	192	5
TAP	7	240	1
TAP	7	240	6
TAP	7	288	0
TAP	7	288	7
BRK	8	0	0
TAP	8	0	4
TAP	8	64	4
BRK	8	64	6
BRK	8	128	2
TAP	8	128	4
TAP	8	192	3
BRK	8	192	5
BRK	8	256	1
TAP	8	256	3
TAP	8	320	3
BRK	8	320	7
TAP	9	0	0
TAP	9	0	6
TAP	9	48	1
TAP	9	48	5
STR	9	96	2
SI_	9	96	2	96	48	7
TAP	9	96	4
STR	9	192	6
SI_	9	192	6	96	48	3
STR	9	288	1
SI_	9	288	1	96	48	5
STR	10	0	4
SI_	10	0	4	96	48	1
STR	10	96	7
SCR	10	96	7	96	48	2
STR	10	192	3
SI_	10	192	3	96	48	0
SI_	10	192	3	96	48	6
TAP	11	0	1
TAP	11	0	7
TAP	11	48	2
TAP	11	48	6
TAP	11	96	3
STR	11	96	5
SI_	11	96	5	96	48	0
STR	11	192	1
SI_	11	192	1	96	48	4
STR	11	288	6
SI_	11	288	6	96	48	2
STR	12	0	3
SI_	12	0	3	96	48	6
STR	12	96	0
SCL	12	96	0	96	48	5
STR	12	192	4
SI_	12	192	4	96	48	1
SI_	12	192	4	96	48	7
TAP	13	0	0
TAP	13	0	6
TAP	13	48	1
TAP	13	48	5
STR	13	96	2
SI_	13	96	2	96	48	7
TAP	13	96	4
STR	13	192	6
SI_	13	192	6	96	48	3
STR	13	288	1
SI_	13	288	1	96	48	5
STR	14	0	4
SI_	14	0	4	96	48	1
STR	14	96	7
SCR	14	96	7	96	48	2
STR	14	192	3
SI_	14	192	3	96	48	0
SI_	14	192	3	96	48	6
TAP	15	0	7
TAP	15	48	0
TAP	15	48	6
TAP	15	96	1
TAP	15	96	5
TAP	15	144	2
TAP	15	144	4
STR	15	192	3
SCL	15	192	3	96	96	0
STR	15	288	0
SCL	15	288	0	96	144	4
SUL	15	288	0	96	144	3
TAP	16	240	3
TAP	16	264	4
TAP	16	288	3
TAP	16	312	4
TAP	16	336	3
TAP	16	360	4
HLD	17	0	2	480
TAP	17	96	3
TAP	17	192	3
TAP	17	288	3
TAP	18	0	3
TAP	18	96	3
TAP	18	192	2
TAP	18	192	3
TAP	18	264	3
TAP	18	264	4
TAP	18	336	4
TAP	18	336	5
HLD	19	0	5	576
TAP	19	96	4
TAP	19	192	4
TAP	19	288	4
TAP	20	0	4
TAP	20	96	4
STR	20	192	4
SCL	20	192	4	96	48	1
TAP	20	288	6
TAP	21	0	4
TAP	21	48	5
TAP	21	96	6
TAP	21	144	1
TAP	21	192	2
TAP	21	240	6
TAP	21	288	5
TAP	21	336	1
TAP	22	0	0
TAP	22	48	7
TAP	22	96	6
TAP	22	144	3
TAP	22	192	4
STR	22	240	1
SXL	22	240	1	96	288	0
STR	22	240	5
SXL	22	240	5	96	288	4
TAP	24	0	0
TAP	24	0	2
TAP	24	96	5
TAP	24	96	7
TAP	24	192	4
TAP	24	240	3
TAP	24	288	0
TAP	24	288	2
HLD	25	0	5	480
TAP	25	96	4
TAP	25	192	4
TAP	25	288	4
TAP	26	0	4
TAP	26	96	4
TAP	26	192	4
TAP	26	192	5
TAP	26	264	3
TAP	26	264	4
TAP	26	336	2
TAP	26	336	3
HLD	27	0	2	576
TAP	27	96	3
TAP	27	192	3
TAP	27	288	3
TAP	28	0	3
TAP	28	96	3
STR	28	192	3
SCR	28	192	3	96	48	6
TAP	28	288	1
TAP	29	0	3
TAP	29	48	2
TAP	29	96	6
TAP	29	144	5
TAP	29	192	4
TAP	29	240	1
TAP	29	288	2
TAP	29	336	6
TAP	30	0	7
TAP	30	48	0
TAP	30	96	1
TAP	30	144	2
STR	30	192	2
SI_	30	192	2	96	48	7
TAP	30	288	5
TAP	30	336	5
TAP	31	0	4
TAP	31	0	6
TAP	31	96	1
TAP	31	96	3
TAP	31	192	5
TAP	31	192	7
TAP	31	288	0
TAP	31	288	2
TAP	32	0	3
TAP	32	48	4
HLD	32	96	5	96
STR	32	96	7
SUL	32	96	7	96	48	2
TAP	32	288	0
TAP	32	288	1
TAP	33	0	6
TAP	33	0	7
TAP	33	48	6
TAP	33	48	7
TAP	33	96	5
TAP	33	144	4
TAP	33	192	3
TAP	33	240	2
TAP	33	288	0
TAP	33	288	1
TAP	33	336	0
TAP	33	336	1
TAP	34	0	2
TAP	34	48	3
TAP	34	96	4
TAP	34	144	5
STR	34	192	5
SI_	34	192	5	96	48	0
TAP	34	288	2
TAP	34	336	2
TAP	35	0	1
TAP	35	0	3
TAP	35	96	4
TAP	35	96	6
TAP	35	192	0
TAP	35	192	1
TAP	35	288	6
TAP	35	288	7
TAP	35	336	6
STR	35	336	7
SCR	35	336	7	96	48	2
STR	36	48	4
SCR	36	48	4	96	48	7
STR	36	144	1
SCR	36	144	1	96	48	4
TAP	36	240	6
BRK	36	288	6
TAP	37	0	5
TAP	37	48	4
TAP	37	96	3
TAP	37	96	6
TAP	37	144	2
TAP	37	192	3
TAP	37	240	1
TAP	37	240	4
TAP	37	288	0
TAP	37	336	7
TAP	38	0	1
TAP	38	0	6
TAP	38	48	5
TAP	38	96	4
TAP	38	144	3
TAP	38	144	6
TAP	38	192	2
TAP	38	240	3
TAP	38	288	1
TAP	38	288	4
TAP	38	336	0
STR	39	0	0
SI_	39	0	0	96	48	3
STR	39	96	4
SI_	39	96	4	96	48	1
STR	39	192	2
SI_	39	192	2	96	48	7
STR	39	288	5
SI_	39	288	5	96	48	0
STR	40	0	3
SI_	40	0	3	96	48	6
STR	40	96	7
SI_	40	96	7	96	48	4
STR	40	192	3
SI_	40	192	3	96	48	0
TAP	40	288	7
TAP	41	0	2
TAP	41	48	3
TAP	41	96	1
TAP	41	96	4
TAP	41	144	5
TAP	41	192	4
TAP	41	240	3
TAP	41	240	6
TAP	41	288	7
TAP	41	336	0
TAP	42	0	1
TAP	42	0	6
TAP	42	48	2
TAP	42	96	3
TAP	42	144	1
TAP	42	144	4
TAP	42	192	5
TAP	42	240	4
TAP	42	288	3
TAP	42	288	6
TAP	42	336	7
STR	43	0	7
SI_	43	0	7	96	48	4
STR	43	96	2
SI_	43	96	2	96	48	6
STR	43	192	5
SI_	43	192	5	96	48	1
STR	43	288	3
SI_	43	288	3	96	48	0
TAP	44	0	7
HLD	44	48	7	96
TAP	44	144	0
TAP	44	192	1
TAP	44	192	6
TAP	44	240	2
TAP	44	240	5
TAP	44	288	3
TAP	44	288	4
HLD	45	0	0	96
HLD	45	96	1	96
HLD	45	192	2	96
TAP	45	288	3
TAP	45	336	1
TAP	45	336	4
TAP	46	48	4
TAP	46	48	5
TAP	46	96	3
TAP	46	96	6
STR	46	192	0
SI_	46	192	0	96	48	5
STR	46	192	1
SI_	46	192	1	96	48	4
TAP	47	0	3
TAP	47	0	6
TAP	47	96	1
TAP	47	96	4
TAP	47	144	1
TAP	47	144	4
TAP	47	240	2
TAP	47	240	5
TAP	47	288	2
TAP	47	288	5
STR	48	0	6
SI_	48	0	6	96	48	3
STR	48	0	7
SI_	48	0	7	96	48	2
TAP	48	192	1
TAP	48	192	4
TAP	48	288	3
TAP	48	288	6
HLD	49	0	7	96
HLD	49	96	6	96
HLD	49	192	5	96
TAP	49	288	4
TAP	49	336	3
TAP	49	336	6
TAP	50	48	2
TAP	50	48	3
TAP	50	96	1
TAP	50	96	4
STR	50	192	3
SI_	50	192	3	96	48	0
STR	50	192	4
SI_	50	192	4	96	48	7
STR	51	0	1
SI_	51	0	1	96	48	5
STR	51	96	0
SI_	51	96	0	96	48	4
STR	51	192	7
SI_	51	192	7	96	48	3
STR	51	288	6
SI_	51	288	6	96	48	2
STR	52	0	5
SI_	52	0	5	96	48	1
STR	52	96	4
SI_	52	96	4	96	48	0
STR	52	192	3
SI_	52	192	3	96	48	7
STR	52	288	2
SI_	52	288	2	96	48	6
STR	53	0	0
SI_	53	0	0	96	48	4
TAP	53	48	0
STR	53	96	7
SI_	53	96	7	96	48	3
TAP	53	144	7
STR	53	192	0
SI_	53	192	0	96	48	4
TAP	53	240	0
TAP	53	288	7
TAP	53	336	7
TAP	54	0	0
TAP	54	12	1
TAP	54	24	2
TAP	54	36	3
TAP	54	48	4
TAP	54	60	5
TAP	54	72	6
TAP	54	84	7
TAP	54	96	0
TAP	54	108	1
TAP	54	120	2
TAP	54	132	3
TAP	54	144	4
TAP	54	156	5
TAP	54	168	6
TAP	54	180	7
BRK	54	192	0
STR	55	0	2
SI_	55	0	2	96	48	7
STR	55	0	6
SI_	55	0	6	96	48	3
TAP	55	96	2
TAP	55	96	6
BRK	55	192	1
BRK	55	192	5
TAP	55	288	3
TAP	55	288	7
TAP	55	336	6
TAP	56	0	5
TAP	56	48	2
TAP	56	96	1
STR	56	144	0
SI_	56	144	0	96	48	4
TAP	56	144	4
TAP	56	240	7
TAP	56	288	7
TAP	56	336	7
TAP	57	0	3
TAP	57	48	2
TAP	57	96	1
TAP	57	144	4
TAP	57	192	5
TAP	57	240	6
TAP	57	288	0
TAP	57	288	7
TAP	57	336	1
STR	57	336	6
SI_	57	336	6	96	48	2
STR	58	48	3
SI_	58	48	3	96	48	6
STR	58	144	7
SI_	58	144	7	96	48	3
TAP	58	240	2
TAP	58	288	1
STR	58	336	0
SCR	58	336	0	96	48	3
TAP	59	48	6
TAP	59	96	5
TAP	59	144	4
TAP	59	192	3
TAP	59	240	2
TAP	59	288	5
STR	59	336	4
SCR	59	336	4	96	48	7
TAP	60	48	0
TAP	60	96	1
TAP	60	144	2
TAP	60	192	6
TAP	60	240	5
STR	60	288	0
SI_	60	288	0	96	48	3
STR	60	288	4
SI_	60	288	4	96	48	7
TAP	61	96	2
TAP	61	96	6
STR	61	144	2
SUL	61	144	2	96	48	5
TAP	61	144	6
STR	61	240	4
SCR	61	240	4	96	144	3
BRK	62	144	1
BRK	62	144	6
TAP	62	240	3
TAP	62	240	7
TAP	62	288	3
TAP	62	288	7
TAP	62	336	3
TAP	62	336	7
STR	63	0	1
SI_	63	0	1	96	48	4
STR	63	0	5
SI_	63	0	5	96	48	0
TAP	63	96	1
TAP	63	96	5
BRK	63	192	2
BRK	63	192	6
TAP	63	288	1
TAP	63	288	5
STR	63	336	1
SI_	63	336	1	96	48	5
TAP	63	336	5
STR	64	48	4
SI_	64	48	4	96	48	1
STR	64	144	0
SI_	64	144	0	96	48	4
TAP	64	240	5
TAP	64	288	6
TAP	64	336	7
STR	65	0	4
SCL	65	0	4	96	48	1
TAP	65	96	0
STR	65	144	0
SCL	65	144	0	96	48	5
TAP	65	240	2
STR	65	336	4
SCR	65	336	4	96	48	6
STR	66	48	0
SCR	66	48	0	96	48	2
HLD	66	144	7	96
TAP	66	240	0
TAP	66	288	1
STR	66	336	2
SCR	66	336	2	96	48	5
TAP	67	48	7
TAP	67	96	6
TAP	67	144	0
TAP	67	192	1
TAP	67	240	5
TAP	67	288	6
STR	67	336	7
SI_	67	336	7	96	48	3
TAP	68	48	0
TAP	68	96	1
TAP	68	144	7
TAP	68	192	6
TAP	68	240	2
TAP	68	288	1
STR	68	336	0
SI_	68	336	0	96	48	4
TAP	69	48	7
STR	69	96	6
SI_	69	96	6	96	48	2
STR	69	192	4
SCR	69	192	4	96	144	3
TAP	69	288	0
TAP	69	336	0
TAP	70	96	2
TAP	70	96	5
TAP	70	192	1
TAP	70	224	3
TAP	70	256	2
TAP	70	288	6
TAP	70	320	4
TAP	70	352	5
STR	71	0	2
SCL	71	0	2	96	96	7
STR	71	96	7
SCL	71	96	7	96	96	4
STR	71	192	4
SCL	71	192	4	96	96	1
TAP	71	288	7
HLD	71	336	7	144
STR	72	96	1
SCR	72	96	1	96	96	4
STR	72	192	4
SCR	72	192	4	96	96	7
STR	72	288	7
SCR	72	288	7	96	96	2
STR	73	0	2
SXR	73	0	2	96	240	4
TAP	74	0	3
TAP	74	0	4
TAP	74	48	3
TAP	74	48	4
TAP	74	144	0
TAP	74	168	7
TAP	74	192	1
TAP	74	192	6
BRK	74	240	1
BRK	74	240	6
STR	75	0	7
SI_	75	0	7	96	48	2
TAP	75	48	0
TAP	75	96	1
TAP	75	192	2
STR	75	192	3
SI_	75	192	3	96	48	6
TAP	75	288	0
HLD	75	336	0	144
TAP	76	48	2
STR	76	96	2
SCR	76	96	2	96	48	5
TAP	76	192	0
TAP	76	240	1
TAP	76	288	2
TAP	76	288	7
TAP	77	0	5
TAP	77	24	4
TAP	77	48	5
STR	77	96	1
SI_	77	96	1	96	48	4
TAP	77	144	1
STR	77	192	6
SI_	77	192	6	96	48	3
TAP	77	240	6
STR	77	288	0
SI_	77	288	0	96	48	4
TAP	77	336	0
STR	78	0	7
SI_	78	0	7	96	48	3
TAP	78	48	7
TAP	78	96	2
TAP	78	144	2
TAP	78	192	7
TAP	78	240	0
TAP	78	288	1
TAP	78	288	6
STR	79	0	0
SI_	79	0	0	96	48	5
TAP	79	48	7
TAP	79	96	6
STR	79	192	4
SI_	79	192	4	96	48	1
TAP	79	192	5
TAP	79	288	7
HLD	79	336	7	144
TAP	80	48	5
STR	80	96	5
SCL	80	96	5	96	48	2
TAP	80	192	7
TAP	80	240	6
TAP	80	288	0
TAP	80	288	5
TAP	81	0	2
TAP	81	24	3
TAP	81	48	2
TAP	81	72	3
TAP	81	96	2
TAP	81	144	6
TAP	81	192	7
TAP	81	240	0
TAP	81	288	1
TAP	81	336	2
TAP	82	0	4
TAP	82	32	3
TAP	82	64	4
TAP	82	96	1
TAP	82	128	3
TAP	82	160	2
TAP	82	192	6
TAP	82	224	4
TAP	82	256	5
TAP	82	288	3
TAP	82	320	4
TAP	82	352	3
STR	83	0	5
SI_	83	0	5	96	48	0
TAP	83	96	1
STR	83	192	2
SI_	83	192	2	96	48	7
TAP	83	288	6
STR	84	0	4
SI_	84	0	4	96	48	0
STR	84	96	3
SI_	84	96	3	96	48	7
TAP	84	192	4
BST	84	288	0
SUL	84	288	0	96	576	3
BST	84	336	0
SCL	84	336	0	96	528	4

T_REC_TAP	426
T_REC_BRK	16
T_REC_XTP	0
T_REC_HLD	19
T_REC_XHO	0
T_REC_STR	114
T_REC_BST	2
T_REC_XST	0
T_REC_TTP	0
T_REC_THO	0
T_REC_SLD	120
T_REC_ALL	697
T_NUM_TAP	540
T_NUM_BRK	18
T_NUM_HLD	19
T_NUM_SLD	120
T_NUM_ALL	697
T_JUDGE_TAP	558
T_JUDGE_HLD	80
T_JUDGE_SLD	120
T_JUDGE_ALL	758
TTM_EACHPAIRS	111
TTM_SCR_TAP	270000
TTM_SCR_BRK	46800
TTM_SCR_HLD	19000
TTM_SCR_SLD	180000
TTM_SCR_ALL	515800
TTM_SCR_S	498600
TTM_SCR_SS	514000
TTM_RAT_ACV	10035

