VERSION	0.00.00	1.03.00
FES_MODE	0
BPM_DEF	190.000	190.000	190.000	190.000
MET_DEF	4	4
RESOLUTION	384
CLK_DEF	384
COMPATIBLE_CODE	MA2

BPM	0	0	190.000
MET	0	0	4	4

TAP	1	0	4
TAP	1	48	4
TAP	1	96	3
TAP	1	192	2
TAP	1	288	1
TAP	1	288	3
TAP	2	0	4
STR	2	96	5
SCL	2	96	5	96	96	2
TAP	3	0	3
TAP	3	48	3
TAP	3	96	4
TAP	3	192	5
TAP	3	288	4
TAP	4	0	3
TAP	4	0	5
STR	4	96	2
SCR	4	96	2	96	96	5
TAP	5	0	4
TAP	5	48	4
TAP	5	96	3
TAP	5	192	2
TAP	5	288	1
TAP	5	288	3
TAP	6	0	4
STR	6	96	5
SCL	6	96	5	96	96	2
TAP	7	0	2
TAP	7	96	3
TAP	7	192	5
TAP	7	288	4
TAP	8	0	4
TAP	8	0	5
HLD	8	64	4	64
HLD	8	64	5	64
TAP	8	192	2
TAP	8	192	3
HLD	8	256	2	64
HLD	8	256	3	64
TAP	9	0	4
TAP	9	0	6
TAP	9	96	4
TAP	9	96	6
TAP	9	192	1
TAP	9	192	3
TAP	9	288	1
TAP	9	288	3
TAP	10	0	4
TAP	10	0	6
TAP	10	96	1
TAP	10	96	3
TAP	10	192	6
TAP	10	192	7
TAP	10	288	0
TAP	10	288	5
TAP	11	0	1
TAP	11	0	3
TAP	11	96	1
TAP	11	96	3
TAP	11	192	4
TAP	11	192	6
TAP	11	288	4
TAP	11	288	6
TAP	12	0	1
TAP	12	0	3
TAP	12	96	4
TAP	12	96	6
TAP	12	192	0
TAP	12	192	1
TAP	12	288	2
TAP	12	288	7
TAP	13	0	4
TAP	13	0	6
TAP	13	96	4
TAP	13	96	6
TAP	13	192	1
TAP	13	192	3
TAP	13	288	1
TAP	13	288	3
TAP	14	0	4
TAP	14	0	6
TAP	14	96	1
TAP	14	96	3
TAP	14	192	6
TAP	14	192	7
TAP	14	288	0
TAP	14	288	5
TAP	15	0	1
TAP	15	0	3
TAP	15	96	2
TAP	15	96	3
TAP	15	192	4
TAP	15	192	6
STR	15	288	4
SCL	15	288	4	96	192	1
STR	15	288	5
SCR	15	288	5	96	192	0
HLD	17	0	2	768
TAP	17	0	3
TAP	17	96	3
TAP	17	192	4
TAP	17	288	4
TAP	18	0	3
TAP	18	96	3
TAP	18	192	4
TAP	18	288	4
STR	19	0	3
SCR	19	0	3	96	384	2
TAP	20	192	2
TAP	20	192	3
TAP	20	288	1
TAP	20	288	4
TAP	21	0	4
HLD	21	0	5	768
TAP	21	96	4
TAP	21	192	3
TAP	21	288	3
TAP	22	0	4
TAP	22	96	4
TAP	22	192	3
TAP	22	288	3
STR	23	0	4
SCL	23	0	4	96	384	5
TAP	24	192	4
TAP	24	192	5
TAP	24	288	3
TAP	24	288	6
HLD	25	0	2	768
TAP	25	0	3
TAP	25	96	3
TAP	25	192	4
TAP	25	288	4
TAP	26	0	3
TAP	26	96	4
TAP	26	192	5
TAP	26	288	4
STR	27	0	3
SCR	27	0	3	96	384	2
TAP	28	192	2
TAP	28	192	3
TAP	28	288	1
TAP	28	288	4
TAP	29	0	4
HLD	29	0	5	768
TAP	29	96	4
TAP	29	192	3
TAP	29	288	3
TAP	30	0	4
TAP	30	96	3
TAP	30	192	2
TAP	30	288	3
STR	31	0	4
SCL	31	0	4	96	384	5
TAP	32	192	4
TAP	32	192	5
TAP	32	288	3
TAP	32	288	6
TAP	33	0	4
TAP	33	96	5
TAP	33	192	3
TAP	33	192	6
TAP	33	288	4
TAP	33	288	5
TAP	34	0	3
TAP	34	96	2
TAP	34	192	1
TAP	34	192	4
TAP	34	288	2
TAP	34	288	3
TAP	35	0	0
TAP	35	96	1
TAP	35	192	2
TAP	35	192	7
TAP	35	288	0
TAP	35	288	1
TAP	36	0	6
TAP	36	0	7
TAP	36	96	0
TAP	36	96	5
TAP	36	192	3
TAP	36	192	4
BRK	36	288	1
BRK	36	288	6
HLD	37	0	5	192
TAP	37	96	4
HLD	37	192	2	192
TAP	37	288	3
HLD	38	0	6	192
TAP	38	96	5
HLD	38	192	1	96
STR	38	288	2
SCR	38	288	2	96	96	5
TAP	39	192	0
TAP	39	192	7
STR	39	288	0
SI_	39	288	0	96	96	4
STR	39	288	7
SI_	39	288	7	96	96	3
TAP	40	192	5
TAP	40	288	4
TAP	40	288	6
HLD	41	0	2	192
TAP	41	96	3
HLD	41	192	5	192
TAP	41	288	4
HLD	42	0	1	192
TAP	42	96	2
HLD	42	192	6	96
STR	42	288	5
SCL	42	288	5	96	96	2
TAP	43	192	0
TAP	43	192	7
STR	43	288	0
SI_	43	288	0	96	96	4
STR	43	288	7
SI_	43	288	7	96	96	3
TAP	44	192	3
TAP	44	192	4
HLD	45	0	2	192
STR	45	0	3
SCR	45	0	3	96	96	6
TAP	45	288	3
TAP	45	288	4
STR	46	0	4
SCL	46	0	4	96	96	1
HLD	46	0	5	192
TAP	46	288	3
TAP	46	288	4
HLD	47	0	0	192
STR	47	0	1
SCR	47	0	1	96	96	4
TAP	47	288	3
TAP	47	288	4
STR	48	0	6
SCL	48	0	6	96	96	3
HLD	48	0	7	192
TAP	48	288	3
TAP	48	288	4
HLD	49	0	2	192
STR	49	0	3
SCR	49	0	3	96	96	6
TAP	49	288	3
TAP	49	288	4
STR	50	0	4
SCL	50	0	4	96	96	1
HLD	50	0	5	192
TAP	50	288	3
TAP	50	288	4
TAP	51	0	2
TAP	51	96	2
TAP	51	96	3
TAP	51	192	5
TAP	51	288	4
TAP	51	288	5
TAP	52	0	2
TAP	52	96	1
TAP	52	96	3
TAP	52	192	5
TAP	52	288	4
TAP	52	288	6
TAP	53	0	0
TAP	53	0	7
TAP	53	96	1
TAP	53	96	6
TAP	53	192	2
TAP	53	192	5
STR	53	288	3
SCL	53	288	3	96	96	0
STR	53	288	4
SCR	53	288	4	96	96	7
BRK	54	192	1
BRK	54	192	6
TAP	55	0	1
TAP	55	0	4
TAP	55	96	3
TAP	55	96	6
HLD	55	192	1	96
TAP	55	192	4
TAP	55	288	0
TAP	55	336	0
TAP	56	48	6
TAP	56	48	7
TAP	56	144	0
TAP	56	144	5
TAP	56	240	3
TAP	56	240	4
TAP	56	288	3
TAP	56	288	4
TAP	57	0	6
TAP	57	0	7
TAP	57	96	1
TAP	57	96	4
TAP	57	192	0
TAP	57	192	1
STR	57	288	2
SI_	57	288	2	96	96	7
STR	57	288	3
SI_	57	288	3	96	96	6
TAP	58	192	3
TAP	58	192	4
TAP	58	288	1
TAP	58	288	6
TAP	59	0	2
TAP	59	96	1
TAP	59	96	3
TAP	59	192	5
TAP	59	288	4
STR	59	288	6
SUL	59	288	6	96	96	1
TAP	60	192	0
TAP	60	192	7
TAP	60	288	2
TAP	60	288	5
HLD	61	0	3	96
TAP	61	96	4
TAP	61	144	4
TAP	61	240	1
TAP	61	240	6
TAP	61	336	6
TAP	61	336	7
STR	62	48	4
SI_	62	48	4	96	96	1
STR	62	48	5
SI_	62	48	5	96	96	0
TAP	63	0	3
TAP	63	0	6
TAP	63	96	1
TAP	63	96	4
TAP	63	192	3
HLD	63	192	6	96
TAP	63	288	7
TAP	63	336	7
STR	64	48	0
SI_	64	48	0	96	96	5
STR	64	48	1
SI_	64	48	1	96	96	4
TAP	64	288	3
TAP	64	288	6
TAP	65	0	1
HLD	65	0	4	96
TAP	65	96	3
TAP	65	144	3
TAP	65	240	6
TAP	65	240	7
TAP	65	336	1
TAP	65	336	4
TAP	66	48	0
TAP	66	48	1
TAP	66	144	3
TAP	66	144	6
TAP	66	240	3
TAP	66	240	4
TAP	66	288	3
TAP	66	288	4
HLD	67	0	2	96
TAP	67	96	3
HLD	67	192	5	96
TAP	67	288	4
HLD	68	0	1	96
TAP	68	96	0
HLD	68	192	6	96
STR	68	288	7
SCR	68	288	7	96	384	5
TAP	70	192	1
TAP	70	192	6
STR	70	288	3
SCL	70	288	3	96	96	0
STR	70	288	4
SCR	70	288	4	96	96	7
TAP	71	192	5
TAP	71	288	4
TAP	71	288	6
TAP	72	0	2
TAP	72	96	1
TAP	72	96	3
TAP	72	192	4
TAP	72	192	5
TAP	72	288	2
TAP	72	288	3
BST	73	0	0
SI_	73	0	0	96	192	4
BST	73	0	1
SI_	73	0	1	96	192	4
TAP	74	0	3
TAP	74	0	4
BRK	74	192	1
BRK	74	192	6
BRK	74	240	1
BRK	74	240	6
TAP	75	0	0
TAP	75	0	1
TAP	75	96	0
TAP	75	96	2
TAP	75	192	6
TAP	75	192	7
TAP	75	288	5
TAP	75	288	7
TAP	76	0	1
TAP	76	0	3
TAP	76	96	4
TAP	76	96	6
TAP	76	192	0
TAP	76	192	1
TAP	76	288	2
TAP	76	288	7
TAP	77	0	6
TAP	77	0	7
TAP	77	96	5
TAP	77	96	7
TAP	77	192	0
TAP	77	192	1
TAP	77	288	0
TAP	77	288	2
TAP	78	0	4
TAP	78	0	6
TAP	78	96	1
TAP	78	96	3
TAP	78	192	6
TAP	78	192	7
TAP	78	288	0
TAP	78	288	5
TAP	79	0	0
TAP	79	0	1
TAP	79	96	0
TAP	79	96	2
TAP	79	192	6
TAP	79	192	7
TAP	79	288	5
TAP	79	288	7
TAP	80	0	1
TAP	80	0	3
TAP	80	96	4
TAP	80	96	6
TAP	80	192	0
TAP	80	192	1
TAP	80	288	2
TAP	80	288	7
TAP	81	0	4
TAP	81	0	6
TAP	81	96	4
TAP	81	96	5
TAP	81	192	1
TAP	81	192	3
STR	81	288	2
SCL	81	288	2	96	192	7
STR	81	288	3
SCR	81	288	3	96	192	6
TAP	83	0	0
TAP	83	0	1
TAP	83	96	3
TAP	83	96	6
TAP	83	192	6
TAP	83	192	7
TAP	83	288	1
TAP	83	288	4
TAP	84	0	0
TAP	84	0	7
TAP	84	96	2
TAP	84	96	5
TAP	84	192	3
TAP	84	192	4
BRK	84	288	1
BRK	84	288	6
BRK	84	336	1
BRK	84	336	6

T_REC_TAP	349
T_REC_BRK	12
T_REC_XTP	0
T_REC_HLD	30
T_REC_XHO	0
T_REC_STR	35
T_REC_BST	2
T_REC_XST	0
T_REC_TTP	0
T_REC_THO	0
T_REC_SLD	37
T_REC_ALL	465
T_NUM_TAP	384
T_NUM_BRK	14
T_NUM_HLD	30
T_NUM_SLD	37
T_NUM_ALL	465
T_JUDGE_TAP	398
T_JUDGE_HLD	140
T_JUDGE_SLD	37
T_JUDGE_ALL	575
TTM_EACHPAIRS	163
TTM_SCR_TAP	192000
TTM_SCR_BRK	36400
TTM_SCR_HLD	30000
TTM_SCR_SLD	55500
TTM_SCR_ALL	313900
TTM_SCR_S	303150
TTM_SCR_SS	312500
TTM_RAT_ACV	10044

