VERSION	0.00.00	1.03.00
FES_MODE	0
BPM_DEF	190.000	190.000	190.000	190.000
MET_DEF	4	4
RESOLUTION	384
CLK_DEF	384
COMPATIBLE_CODE	MA2

BPM	0	0	190.000
MET	0	0	4	4

TAP	1	0	0
TAP	1	0	1
TAP	1	192	6
TAP	1	192	7
TAP	2	0	0
TAP	2	96	1
TAP	2	192	2
TAP	3	0	6
TAP	3	0	7
TAP	3	192	0
TAP	3	192	1
TAP	4	0	7
TAP	4	96	6
TAP	4	192	5
TAP	5	0	4
TAP	5	0	5
TAP	5	192	2
TAP	5	192	3
TAP	6	0	4
TAP	6	96	5
TAP	6	192	6
TAP	7	0	1
TAP	7	0	3
STR	7	192	4
SSL	7	192	4	96	288	0
TAP	7	192	6
BRK	9	0	1
TAP	9	96	0
TAP	9	192	1
TAP	10	0	6
TAP	10	96	7
TAP	10	192	6
TAP	11	0	0
TAP	11	96	7
TAP	11	192	0
TAP	12	0	0
TAP	12	0	7
TAP	12	96	1
TAP	12	96	6
TAP	12	192	2
TAP	12	192	5
TAP	13	0	5
TAP	13	96	4
TAP	13	192	5
TAP	14	0	2
TAP	14	96	3
TAP	14	192	2
TAP	15	0	4
TAP	15	96	3
TAP	15	192	4
TAP	16	0	2
TAP	16	0	5
TAP	16	96	1
TAP	16	96	6
BRK	16	192	0
BRK	16	192	7
TAP	17	0	6
TAP	17	96	6
TAP	17	192	5
TAP	18	0	4
TAP	18	96	4
TAP	18	192	3
STR	19	0	2
SI_	19	0	2	96	288	7
TAP	21	0	1
TAP	21	96	1
TAP	21	192	2
TAP	22	0	3
TAP	22	96	3
TAP	22	192	4
STR	23	0	5
SUR	23	0	5	96	288	2
TAP	25	0	2
TAP	25	96	2
TAP	25	192	1
TAP	26	0	0
TAP	26	96	0
TAP	26	192	7
STR	27	0	6
SI_	27	0	6	96	288	3
TAP	29	0	5
TAP	29	96	5
TAP	29	192	6
TAP	30	0	7
TAP	30	96	7
TAP	30	192	0
STR	31	0	1
SUR	31	0	1	96	288	6
TAP	33	0	7
TAP	33	96	7
TAP	33	192	0
TAP	33	192	6
TAP	34	0	0
TAP	34	96	0
TAP	34	192	1
TAP	34	192	7
STR	35	0	0
SCR	35	0	0	96	384	3
STR	35	0	7
SCL	35	0	7	96	384	4
TAP	37	0	2
TAP	37	96	2
TAP	37	192	1
TAP	37	192	3
TAP	38	0	5
TAP	38	96	5
TAP	38	192	4
TAP	38	192	6
STR	39	0	2
SI_	39	0	2	96	288	7
STR	39	0	3
SI_	39	0	3	96	288	6
TAP	41	0	5
TAP	41	96	5
TAP	41	192	4
TAP	41	192	6
TAP	42	0	2
TAP	42	96	2
TAP	42	192	1
TAP	42	192	3
STR	43	0	4
SI_	43	0	4	96	288	1
STR	43	0	5
SI_	43	0	5	96	288	0
HLD	45	0	1	192
TAP	45	192	0
HLD	46	0	6	192
TAP	46	192	7
HLD	47	0	1	192
TAP	47	192	2
TAP	48	0	3
TAP	48	192	2
TAP	48	192	4
HLD	49	0	5	192
TAP	49	192	4
HLD	50	0	2	192
TAP	50	192	3
TAP	51	0	4
TAP	51	0	5
TAP	51	192	3
TAP	51	192	6
TAP	52	0	2
TAP	52	0	3
TAP	52	192	1
TAP	52	192	4
TAP	53	0	2
TAP	53	0	5
TAP	53	192	1
TAP	53	192	6
TAP	54	0	0
TAP	54	0	7
TAP	54	96	0
TAP	54	96	7
TAP	54	192	1
TAP	54	192	6
BRK	55	0	1
TAP	55	96	1
TAP	55	192	0
TAP	55	192	2
TAP	56	0	6
TAP	56	96	6
TAP	56	192	5
TAP	56	192	7
TAP	57	0	0
TAP	57	96	0
TAP	57	192	7
TAP	57	288	7
TAP	58	0	1
TAP	58	0	6
TAP	59	0	5
TAP	59	96	5
TAP	59	192	4
TAP	59	192	6
TAP	60	0	2
TAP	60	96	2
TAP	60	192	1
TAP	60	192	3
STR	61	0	4
SCL	61	0	4	96	288	1
STR	61	0	5
SCR	61	0	5	96	288	0
TAP	63	0	6
TAP	63	0	7
TAP	63	96	6
TAP	63	96	7
TAP	63	192	0
TAP	63	192	5
TAP	64	0	0
TAP	64	0	1
TAP	64	96	0
TAP	64	96	1
TAP	64	192	2
TAP	64	192	7
TAP	65	0	6
TAP	65	0	7
TAP	65	96	0
TAP	65	96	5
TAP	65	192	1
TAP	65	192	4
TAP	65	288	2
TAP	65	288	3
TAP	66	0	1
TAP	66	0	4
TAP	67	0	2
TAP	67	0	3
TAP	67	96	2
TAP	67	96	3
TAP	67	192	1
TAP	67	192	4
TAP	68	0	4
TAP	68	0	5
TAP	68	96	4
TAP	68	96	5
TAP	68	192	3
TAP	68	192	6
STR	69	0	2
SCL	69	0	2	96	288	7
STR	69	0	3
SCR	69	0	3	96	288	6
TAP	71	0	0
TAP	71	96	1
TAP	71	192	2
TAP	72	0	7
TAP	72	96	6
TAP	72	192	5
STR	73	0	3
SI_	73	0	3	96	288	0
STR	73	0	4
SI_	73	0	4	96	288	7
TAP	74	192	0
TAP	74	192	7
TAP	74	240	0
TAP	74	240	7
TAP	75	0	6
TAP	75	0	7
TAP	75	192	0
TAP	75	192	1
TAP	76	0	7
TAP	76	96	6
TAP	76	192	5
TAP	77	0	2
TAP	77	0	3
TAP	77	192	4
TAP	77	192	5
TAP	78	0	3
TAP	78	96	2
TAP	78	192	1
TAP	79	0	0
TAP	79	0	1
TAP	79	192	6
TAP	79	192	7
TAP	80	0	0
TAP	80	96	1
TAP	80	192	2
TAP	81	0	1
TAP	81	0	3
TAP	81	192	4
TAP	81	192	6
TAP	82	0	3
TAP	82	0	4
TAP	82	96	2
TAP	82	96	5
TAP	82	192	1
TAP	82	192	6
TAP	83	0	6
TAP	83	0	7
TAP	83	192	0
TAP	83	192	1
TAP	84	0	1
TAP	84	0	6
TAP	84	192	0
TAP	84	192	7
STR	84	288	0
SCR	84	288	0	96	384	3
STR	84	288	7
SCL	84	288	7	96	384	4

T_REC_TAP	229
T_REC_BRK	4
T_REC_XTP	0
T_REC_HLD	5
T_REC_XHO	0
T_REC_STR	19
T_REC_BST	0
T_REC_XST	0
T_REC_TTP	0
T_REC_THO	0
T_REC_SLD	19
T_REC_ALL	276
T_NUM_TAP	248
T_NUM_BRK	4
T_NUM_HLD	5
T_NUM_SLD	19
T_NUM_ALL	276
T_JUDGE_TAP	252
T_JUDGE_HLD	20
T_JUDGE_SLD	19
T_JUDGE_ALL	291
TTM_EACHPAIRS	76
TTM_SCR_TAP	124000
TTM_SCR_BRK	10400
TTM_SCR_HLD	5000
TTM_SCR_SLD	28500
TTM_SCR_ALL	167900
TTM_SCR_S	162500
TTM_SCR_SS	167500
TTM_RAT_ACV	10023

