VERSION	0.00.00	1.03.00
FES_MODE	0
BPM_DEF	190.000	190.000	190.000	190.000
MET_DEF	4	4
RESOLUTION	384
CLK_DEF	384
COMPATIBLE_CODE	MA2

BPM	0	0	190.000
MET	0	0	4	4

TAP	1	0	0
TAP	3	0	0
TAP	3	0	7
TAP	5	0	7
TAP	7	0	0
TAP	7	0	7
TAP	9	0	0
TAP	9	192	0
TAP	10	0	1
TAP	10	192	1
TAP	11	0	2
TAP	11	192	2
TAP	12	0	3
TAP	12	0	4
TAP	13	0	4
TAP	13	192	4
TAP	14	0	5
TAP	14	192	5
TAP	15	0	6
TAP	15	192	6
BRK	16	0	0
BRK	16	0	7
TAP	17	0	0
TAP	17	192	0
TAP	18	0	1
TAP	18	192	1
TAP	19	0	2
TAP	19	192	2
TAP	20	0	3
TAP	20	192	3
TAP	21	0	4
TAP	21	192	4
TAP	22	0	5
TAP	22	192	5
HLD	23	0	6	384
TAP	25	0	7
TAP	25	192	7
TAP	26	0	6
TAP	26	192	6
TAP	27	0	5
TAP	27	192	5
TAP	28	0	4
TAP	28	192	4
TAP	29	0	3
TAP	29	192	3
TAP	30	0	2
TAP	30	192	2
HLD	31	0	1	384
TAP	33	0	0
TAP	33	192	0
TAP	34	0	7
TAP	34	192	7
HLD	35	0	0	384
HLD	35	0	7	384
TAP	37	0	6
TAP	37	96	6
TAP	37	192	6
TAP	38	0	7
TAP	38	96	7
TAP	38	192	7
STR	39	0	7
SI_	39	0	7	96	288	3
TAP	41	0	1
TAP	41	96	1
TAP	41	192	1
TAP	42	0	0
TAP	42	96	0
TAP	42	192	0
STR	43	0	0
SI_	43	0	0	96	288	4
TAP	45	0	5
TAP	45	192	5
TAP	46	0	4
TAP	46	0	5
TAP	47	0	2
TAP	47	192	2
TAP	48	0	2
TAP	48	0	3
TAP	49	0	3
TAP	49	192	4
TAP	50	0	3
TAP	50	0	4
TAP	51	0	4
TAP	51	192	4
TAP	52	0	5
TAP	52	192	5
TAP	53	0	6
TAP	53	192	6
TAP	54	0	7
BRK	54	192	0
BRK	54	192	7
TAP	55	0	0
TAP	55	96	0
TAP	55	192	0
TAP	56	0	1
TAP	56	96	1
TAP	56	192	1
TAP	57	0	2
TAP	57	96	2
TAP	57	192	2
HLD	58	0	3	192
HLD	58	0	4	192
TAP	59	0	4
TAP	59	96	4
TAP	59	192	4
TAP	60	0	5
TAP	60	96	5
TAP	60	192	5
TAP	61	0	6
TAP	61	96	6
TAP	61	192	6
BRK	62	0	0
BRK	62	0	7
TAP	63	0	7
TAP	63	96	7
TAP	63	192	7
TAP	64	0	6
TAP	64	96	6
TAP	64	192	6
TAP	65	0	5
TAP	65	96	5
TAP	65	192	5
HLD	66	0	3	192
HLD	66	0	4	192
TAP	67	0	3
TAP	67	96	3
TAP	67	192	3
TAP	68	0	2
TAP	68	96	2
TAP	68	192	2
STR	69	0	1
SI_	69	0	1	96	288	5
TAP	71	0	4
TAP	71	96	4
TAP	71	192	4
TAP	72	0	5
TAP	72	96	5
TAP	72	192	5
STR	73	0	6
SI_	73	0	6	96	288	2
TAP	75	0	0
TAP	75	192	0
TAP	76	0	1
TAP	76	192	0
TAP	76	192	1
TAP	77	0	2
TAP	77	192	2
TAP	78	0	3
TAP	78	96	3
TAP	78	192	3
TAP	79	0	4
TAP	79	192	4
TAP	80	0	5
TAP	80	192	4
TAP	80	192	5
HLD	81	0	6	192
TAP	82	0	7
TAP	82	192	7
TAP	83	0	0
TAP	83	192	0
STR	84	0	1
SI_	84	0	1	96	288	5

T_REC_TAP	137
T_REC_BRK	6
T_REC_XTP	0
T_REC_HLD	9
T_REC_XHO	0
T_REC_STR	5
T_REC_BST	0
T_REC_XST	0
T_REC_TTP	0
T_REC_THO	0
T_REC_SLD	5
T_REC_ALL	162
T_NUM_TAP	142
T_NUM_BRK	6
T_NUM_HLD	9
T_NUM_SLD	5
T_NUM_ALL	162
T_JUDGE_TAP	148
T_JUDGE_HLD	52
T_JUDGE_SLD	5
T_JUDGE_ALL	205
TTM_EACHPAIRS	14
TTM_SCR_TAP	71000
TTM_SCR_BRK	15600
TTM_SCR_HLD	9000
TTM_SCR_SLD	7500
TTM_SCR_ALL	103100
TTM_SCR_S	99450
TTM_SCR_SS	102500
TTM_RAT_ACV	10058

