VERSION	0.00.00	1.03.00
FES_MODE	0
BPM_DEF	215.000	215.000	215.000	215.000
MET_DEF	4	4
RESOLUTION	384
CLK_DEF	384
COMPATIBLE_CODE	MA2

BPM	0	0	215.000

HLD	2	0	5	192
TAP	2	96	4
HLD	2	192	2	192
TAP	2	288	3
TAP	3	0	5
TAP	3	96	4
TAP	3	96	5
TAP	3	192	3
TAP	3	192	4
TAP	3	288	2
TAP	3	288	3
HLD	4	0	2	192
TAP	4	96	3
HLD	4	192	5	192
TAP	4	288	4
HLD	5	0	1	96
TAP	5	96	2
TAP	5	192	2
TAP	5	192	3
HLD	6	0	6	96
HLD	6	96	5	96
HLD	6	192	4	96
HLD	6	288	3	96
TAP	7	0	4
TAP	7	48	4
TAP	7	96	2
TAP	7	144	2
TAP	7	192	5
TAP	7	240	5
TAP	7	288	3
HLD	8	0	1	96
HLD	8	96	2	96
HLD	8	192	3	96
HLD	8	288	4	96
TAP	9	0	3
TAP	9	48	3
TAP	9	96	5
TAP	9	144	5
TAP	9	192	2
TAP	9	240	2
TAP	9	288	4
TAP	10	0	1
TAP	10	48	3
TAP	10	96	2
TAP	10	144	3
TAP	10	192	1
TAP	10	240	4
TAP	10	288	3
TAP	10	336	4
TAP	11	0	2
TAP	11	48	5
TAP	11	96	4
TAP	11	144	5
TAP	11	192	2
TAP	11	240	4
TAP	11	288	3
TAP	11	336	4
TAP	12	0	0
TAP	12	48	1
TAP	12	96	2
TAP	12	144	3
TAP	12	192	1
TAP	12	192	4
TAP	12	288	3
TAP	12	288	5
TAP	13	0	2
HLD	13	0	4	96
TAP	13	96	3
TAP	13	144	3
TAP	13	192	4
TAP	13	240	4
TAP	13	288	3
TAP	14	0	6
TAP	14	48	4
TAP	14	96	5
TAP	14	144	4
TAP	14	192	6
TAP	14	240	3
TAP	14	288	4
TAP	14	336	3
TAP	15	0	5
TAP	15	96	2
TAP	15	144	3
TAP	15	192	4
TAP	15	288	2
TAP	15	288	5
HLD	16	0	0	96
TAP	16	0	7
HLD	16	96	1	96
HLD	16	192	2	96
HLD	16	288	3	96
HLD	17	0	4	192
HLD	17	192	7	192
STR	18	0	0
SCR	18	0	0	96	192	5
BRK	19	0	1
BRK	19	0	6
TAP	19	96	2
TAP	19	144	3
TAP	19	192	4
TAP	19	240	5
TAP	19	288	4
TAP	19	336	3
TAP	20	0	2
TAP	20	48	2
TAP	20	96	3
TAP	20	144	2
TAP	20	192	5
TAP	20	240	5
TAP	20	288	4
TAP	20	336	5
HLD	21	0	1	48
HLD	21	48	2	48
HLD	21	96	3	48
HLD	21	144	4	48
HLD	21	192	7	48
HLD	21	240	6	48
HLD	21	288	5	48
HLD	21	336	4	48
HLD	22	0	2	48
HLD	22	48	3	48
HLD	22	96	4	48
HLD	22	144	5	48
TAP	22	192	0
TAP	22	240	0
TAP	22	288	0
TAP	22	288	7
TAP	23	0	1
BRK	23	0	3
TAP	23	48	2
TAP	23	96	2
TAP	23	144	2
BRK	23	192	4
TAP	23	192	6
TAP	23	240	5
TAP	23	288	5
TAP	23	336	5
BRK	24	0	0
TAP	24	0	3
TAP	24	48	2
TAP	24	96	2
TAP	24	144	2
TAP	24	192	4
BRK	24	192	7
TAP	24	240	5
TAP	24	288	5
TAP	24	336	5
TAP	25	0	0
TAP	25	0	1
TAP	25	48	0
TAP	25	48	1
TAP	25	96	2
TAP	25	96	7
TAP	25	144	2
TAP	25	144	7
TAP	25	192	3
TAP	25	192	6
TAP	25	240	3
TAP	25	240	6
STR	25	288	4
SI_	25	288	4	96	48	7
TAP	25	288	5
STR	26	0	0
SI_	26	0	0	96	48	3
BRK	26	0	4
BRK	26	96	0
STR	26	96	6
SI_	26	96	6	96	48	1
STR	26	192	2
SI_	26	192	2	96	48	6
BRK	26	192	6
BRK	26	288	2
STR	26	288	4
SCR	26	288	4	96	576	3
TAP	27	0	4
STR	28	288	0
SI_	28	288	0	96	48	4
TAP	28	312	0
TAP	28	336	0
TAP	28	360	0
TAP	29	0	0
TAP	29	96	2
TAP	29	144	1
TAP	29	192	2
TAP	29	240	3
TAP	29	288	2
TAP	29	336	1
TAP	30	0	2
TAP	30	48	3
TAP	30	96	2
TAP	30	144	1
STR	30	192	0
SI_	30	192	0	96	48	3
STR	30	192	7
SI_	30	192	7	96	48	4
TAP	31	0	1
TAP	31	0	6
TAP	31	96	5
TAP	31	144	6
TAP	31	192	5
TAP	31	240	4
TAP	31	288	5
TAP	31	336	6
TAP	32	0	5
TAP	32	48	4
TAP	32	96	5
TAP	32	144	6
STR	32	192	0
SI_	32	192	0	96	48	4
STR	32	192	7
SI_	32	192	7	96	48	3
TAP	33	0	1
TAP	33	0	6
TAP	33	96	2
TAP	33	96	3
TAP	33	144	1
TAP	33	192	2
TAP	33	192	3
TAP	33	240	4
TAP	33	288	2
TAP	33	288	3
TAP	33	336	1
TAP	34	0	2
TAP	34	0	3
TAP	34	48	4
TAP	34	96	2
TAP	34	96	3
TAP	34	144	1
STR	34	192	0
SI_	34	192	0	96	48	4
STR	34	192	7
SI_	34	192	7	96	48	2
TAP	35	0	1
TAP	35	0	6
TAP	35	96	4
TAP	35	96	5
TAP	35	144	6
TAP	35	192	4
TAP	35	192	5
TAP	35	240	3
TAP	35	288	4
TAP	35	288	5
TAP	35	336	6
TAP	36	0	4
TAP	36	0	5
TAP	36	48	3
TAP	36	96	4
TAP	36	96	5
TAP	36	144	3
TAP	36	144	6
STR	36	192	2
SI_	36	192	2	96	48	0
STR	36	192	7
SI_	36	192	7	96	48	3
TAP	37	0	1
TAP	37	0	4
TAP	37	48	2
TAP	37	96	3
TAP	37	96	6
TAP	37	144	5
TAP	37	192	1
TAP	37	192	4
TAP	37	240	2
TAP	37	288	3
TAP	37	288	4
TAP	37	336	5
STR	38	0	6
SI_	38	0	6	96	48	3
TAP	38	0	7
TAP	38	48	6
STR	38	96	2
SI_	38	96	2	96	48	7
TAP	38	144	2
STR	38	192	6
SI_	38	192	6	96	48	2
TAP	38	240	6
TAP	38	288	0
TAP	39	0	3
TAP	39	0	6
TAP	39	48	5
TAP	39	96	1
TAP	39	96	4
TAP	39	144	2
TAP	39	192	3
TAP	39	192	6
TAP	39	240	5
TAP	39	288	3
TAP	39	288	4
TAP	39	336	2
TAP	40	0	0
STR	40	0	1
SI_	40	0	1	96	48	4
TAP	40	48	1
STR	40	96	5
SI_	40	96	5	96	48	0
TAP	40	144	5
STR	40	192	1
SI_	40	192	1	96	48	5
TAP	40	240	1
TAP	40	288	7
TAP	41	0	2
TAP	41	0	7
TAP	41	48	1
TAP	41	72	0
TAP	41	96	1
TAP	41	120	0
TAP	41	144	1
TAP	41	168	0
STR	41	192	1
SI_	41	192	1	96	48	4
SI_	41	192	1	96	48	7
TAP	41	288	1
TAP	42	0	0
TAP	42	0	5
TAP	42	48	6
TAP	42	72	7
TAP	42	96	6
TAP	42	120	7
TAP	42	144	6
TAP	42	168	7
STR	42	192	6
SI_	42	192	6	96	48	0
SI_	42	192	6	96	48	3
TAP	42	288	6
STR	43	0	1
SI_	43	0	1	96	48	5
STR	43	48	5
SI_	43	48	5	96	48	1
TAP	43	96	1
STR	43	192	6
SI_	43	192	6	96	48	2
STR	43	240	2
SI_	43	240	2	96	48	6
TAP	43	288	6
STR	44	0	0
SCR	44	0	0	96	48	3
STR	44	96	0
SCL	44	96	0	96	48	5
STR	44	192	0
SF_	44	192	0	96	48	4
BRK	44	288	0
HLD	45	0	0	144
TAP	45	0	1
TAP	45	48	1
TAP	45	96	1
TAP	45	144	1
TAP	45	192	1
HLD	45	192	2	144
TAP	45	240	1
TAP	45	288	1
TAP	45	336	1
HLD	46	0	2	48
TAP	46	0	3
TAP	46	48	3
HLD	46	96	3	48
TAP	46	96	4
TAP	46	144	4
HLD	46	192	4	48
TAP	46	192	5
TAP	46	240	5
HLD	46	288	5	48
TAP	46	288	6
TAP	46	336	6
TAP	47	0	6
HLD	47	0	7	144
TAP	47	48	6
TAP	47	96	6
TAP	47	144	6
HLD	47	192	5	144
TAP	47	192	6
TAP	47	240	6
TAP	47	288	6
TAP	47	336	6
TAP	48	0	4
HLD	48	0	5	48
TAP	48	48	4
TAP	48	96	3
HLD	48	96	4	48
TAP	48	144	3
TAP	48	192	3
TAP	48	192	4
TAP	48	216	2
TAP	48	216	5
TAP	48	240	1
TAP	48	240	6
BRK	48	288	1
BRK	48	288	6
HLD	49	0	0	144
TAP	49	0	1
TAP	49	48	1
TAP	49	96	1
TAP	49	144	1
TAP	49	192	1
HLD	49	192	2	48
TAP	49	240	1
HLD	49	288	0	48
TAP	49	288	1
TAP	49	336	1
TAP	50	0	6
HLD	50	0	7	144
TAP	50	48	6
TAP	50	96	6
TAP	50	144	6
HLD	50	192	5	48
TAP	50	192	6
TAP	50	240	6
TAP	50	288	6
HLD	50	288	7	48
TAP	50	336	6
TAP	51	0	3
TAP	51	0	4
TAP	51	48	2
TAP	51	48	3
TAP	51	96	3
TAP	51	96	4
TAP	51	144	4
TAP	51	144	5
STR	51	192	3
SI_	51	192	3	96	48	0
STR	51	192	4
SI_	51	192	4	96	48	7
TAP	51	288	3
TAP	51	288	4
TAP	52	0	2
HLD	52	0	3	48
TAP	52	48	1
HLD	52	96	4	48
TAP	52	96	5
TAP	52	144	6
STR	52	192	0
SI_	52	192	0	96	48	3
STR	52	192	7
SI_	52	192	7	96	48	4
BRK	52	288	0
BRK	52	288	7
STR	53	0	0
SI_	53	0	0	96	48	4
TAP	53	48	1
TAP	53	48	7
TAP	53	96	0
STR	53	192	7
SI_	53	192	7	96	48	3
TAP	53	240	0
TAP	53	240	6
TAP	53	288	7
TAP	54	0	0
HLD	54	0	4	48
TAP	54	48	0
HLD	54	96	1	48
TAP	54	96	5
TAP	54	144	5
TAP	54	192	2
HLD	54	192	6	48
TAP	54	240	2
HLD	54	288	3	48
TAP	54	288	7
TAP	54	336	7
STR	55	0	6
SI_	55	0	6	96	48	2
TAP	55	48	5
TAP	55	48	7
TAP	55	96	6
STR	55	192	1
SI_	55	192	1	96	48	5
TAP	55	240	0
TAP	55	240	2
TAP	55	288	1
STR	56	0	7
SCL	56	0	7	96	48	4
SCR	56	0	7	96	48	2
STR	56	96	7
SF_	56	96	7	96	48	3
BRK	56	192	7
STR	57	0	5
SI_	57	0	5	96	48	1
TAP	57	48	4
TAP	57	48	6
TAP	57	96	5
STR	57	192	2
SI_	57	192	2	96	48	6
TAP	57	240	1
TAP	57	240	3
TAP	57	288	2
HLD	58	0	0	48
TAP	58	0	4
TAP	58	48	4
TAP	58	96	1
HLD	58	96	5	48
TAP	58	144	1
HLD	58	192	2	48
TAP	58	192	6
TAP	58	240	6
TAP	58	288	3
HLD	58	288	7	48
TAP	58	336	3
STR	59	0	6
SI_	59	0	6	96	48	3
TAP	59	48	6
STR	59	96	1
SI_	59	96	1	96	48	4
TAP	59	144	1
STR	59	192	5
SI_	59	192	5	96	48	0
TAP	59	240	5
TAP	59	288	3
TAP	59	336	3
TAP	60	0	3
TAP	60	24	7
TAP	60	48	2
TAP	60	72	6
TAP	60	96	1
TAP	60	120	5
TAP	60	144	0
TAP	60	168	4
TAP	60	192	7
TAP	60	216	3
TAP	60	240	0
TAP	60	264	4
TAP	60	288	1
TAP	60	312	5
TAP	60	336	2
TAP	60	360	6
BST	61	0	3
SCL	61	0	3	96	288	0
TAP	61	0	7
STR	62	0	4
SCR	62	0	4	96	288	7
STR	63	0	3
SUR	63	0	3	96	288	0
STR	64	0	4
SUL	64	0	4	96	288	7
STR	65	0	1
SLL	65	0	1	96	288	3
HLD	65	96	7	192
STR	66	0	6
SLR	66	0	6	96	288	4
HLD	66	96	0	192
STR	67	0	2
SLL	67	0	2	96	288	4
HLD	67	96	0	192
STR	68	0	5
SLR	68	0	5	96	288	3
HLD	68	96	7	192
HLD	69	0	2	192
TAP	69	96	3
HLD	69	192	5	192
TAP	69	288	4
HLD	70	0	2	192
TAP	70	96	3
BRK	70	192	7
BRK	70	240	7
BRK	70	288	7
BRK	70	336	7
HLD	71	0	1	192
TAP	71	96	3
HLD	71	192	6	192
TAP	71	288	4
HLD	72	0	1	192
TAP	72	96	3
STR	72	192	7
SI_	72	192	7	96	48	3
SI_	72	192	7	96	48	5
HLD	73	0	4	192
TAP	73	96	5
HLD	73	192	3	192
TAP	73	288	2
HLD	74	0	4	192
TAP	74	96	5
HLD	74	192	3	192
TAP	74	288	2
HLD	75	0	4	96
HLD	75	96	5	96
HLD	75	192	6	96
HLD	75	288	7	96
STR	76	0	0
SCR	76	0	0	96	192	7
BRK	76	192	0
STR	77	0	6
SI_	77	0	6	96	48	3
TAP	77	96	6
TAP	77	96	7
TAP	77	144	0
STR	77	192	1
SI_	77	192	1	96	48	4
TAP	77	288	0
TAP	77	288	1
TAP	77	336	7
STR	78	0	6
SI_	78	0	6	96	48	2
TAP	78	96	6
TAP	78	96	7
TAP	78	144	0
STR	78	192	1
SI_	78	192	1	96	48	5
TAP	78	288	0
TAP	78	288	1
TAP	78	336	7
STR	79	0	6
SI_	79	0	6	96	48	4
STR	79	96	1
SI_	79	96	1	96	48	3
STR	79	96	6
SI_	79	96	6	96	48	0
TAP	79	192	1
STR	79	192	6
SI_	79	192	6	96	48	3
TAP	79	288	6
STR	80	0	1
SI_	80	0	1	96	48	3
STR	80	96	1
SI_	80	96	1	96	48	7
STR	80	96	6
SI_	80	96	6	96	48	4
STR	80	192	1
SI_	80	192	1	96	48	4
TAP	80	192	6
TAP	80	288	1
TAP	81	0	3
TAP	81	0	5
TAP	81	48	3
TAP	81	48	5
TAP	81	96	2
TAP	81	96	4
TAP	81	144	2
TAP	81	144	4
TAP	81	192	1
TAP	81	192	3
TAP	81	240	1
TAP	81	240	3
TAP	81	288	0
TAP	81	288	2
TAP	81	336	0
TAP	81	336	2
TAP	82	0	3
TAP	82	0	5
TAP	82	48	3
TAP	82	48	5
TAP	82	96	4
TAP	82	96	6
TAP	82	144	4
TAP	82	144	6
TAP	82	192	5
TAP	82	192	7
TAP	82	240	5
TAP	82	240	7
TAP	82	288	0
TAP	82	288	6
TAP	82	336	0
TAP	82	336	6
TAP	83	0	3
TAP	83	24	4
TAP	83	48	3
TAP	83	72	4
TAP	83	96	3
TAP	83	120	4
TAP	83	144	3
TAP	83	168	4
TAP	83	192	2
TAP	83	216	5
TAP	83	240	2
TAP	83	264	5
TAP	83	288	2
TAP	83	312	5
TAP	83	336	2
TAP	83	360	5
TAP	84	0	1
TAP	84	24	6
TAP	84	48	1
TAP	84	72	6
TAP	84	96	1
TAP	84	120	6
TAP	84	144	1
TAP	84	168	6
HLD	84	192	0	6
HLD	84	204	1	6
HLD	84	216	2	6
HLD	84	228	3	6
HLD	84	240	4	6
HLD	84	252	5	6
HLD	84	264	6	6
HLD	84	276	7	6
HLD	84	288	0	6
HLD	84	300	1	6
HLD	84	312	2	6
HLD	84	324	3	6
HLD	84	336	4	6
HLD	84	348	5	6
HLD	84	360	6	6
HLD	84	372	7	6
BST	85	0	0
SF_	85	0	0	96	288	4
STR	86	192	3
SSR	86	192	3	96	48	7
STR	86	192	4
SSL	86	192	4	96	48	0
TAP	87	0	2
TAP	87	0	5
TAP	87	48	1
TAP	87	72	3
TAP	87	96	1
TAP	87	144	6
TAP	87	168	4
TAP	87	192	6
TAP	87	240	1
TAP	87	264	3
TAP	87	288	1
TAP	87	336	6
TAP	87	360	4
STR	88	0	6
SI_	88	0	6	96	48	3
STR	88	48	1
SI_	88	48	1	96	48	4
TAP	88	96	6
TAP	88	144	1
STR	88	192	7
SI_	88	192	7	96	48	3
STR	88	240	0
SI_	88	240	0	96	48	4
TAP	88	288	7
TAP	88	336	0
TAP	89	0	5
TAP	89	48	6
TAP	89	72	4
TAP	89	96	6
TAP	89	144	1
TAP	89	168	3
TAP	89	192	1
TAP	89	240	6
TAP	89	264	4
TAP	89	288	6
TAP	89	336	1
TAP	89	360	3
STR	90	0	1
SI_	90	0	1	96	48	4
STR	90	48	6
SI_	90	48	6	96	48	3
TAP	90	96	1
TAP	90	144	6
STR	90	192	0
SI_	90	192	0	96	48	4
STR	90	240	7
SI_	90	240	7	96	48	3
TAP	90	288	0
TAP	90	336	7
TAP	91	0	2
TAP	91	48	1
TAP	91	72	0
TAP	91	96	1
TAP	91	120	0
TAP	91	144	1
TAP	91	168	0
STR	91	192	1
SI_	91	192	1	96	48	5
STR	91	240	7
SI_	91	240	7	96	48	3
TAP	91	288	1
TAP	91	336	7
TAP	92	0	2
TAP	92	48	6
TAP	92	72	7
TAP	92	96	6
TAP	92	120	7
TAP	92	144	6
TAP	92	168	7
STR	92	192	6
SI_	92	192	6	96	48	2
STR	92	240	0
SI_	92	240	0	96	48	4
TAP	92	288	6
TAP	92	336	0
TAP	93	0	5
TAP	93	48	0
TAP	93	60	1
TAP	93	72	2
TAP	93	84	3
BRK	93	96	7
TAP	93	144	0
TAP	93	156	1
TAP	93	168	2
TAP	93	180	3
BRK	93	192	6
TAP	93	240	0
TAP	93	252	1
TAP	93	264	2
TAP	93	276	3
BRK	93	288	5
TAP	93	336	0
TAP	93	348	1
TAP	93	360	2
TAP	93	372	3
BRK	94	0	4
TAP	94	12	5
TAP	94	24	6
TAP	94	36	7
TAP	94	48	0
TAP	94	60	1
TAP	94	72	2
TAP	94	84	3
BRK	94	96	4
TAP	94	108	5
TAP	94	120	6
TAP	94	132	7
TAP	94	144	0
TAP	94	156	1
TAP	94	168	2
TAP	94	180	3
BST	94	192	4
SI_	94	192	4	96	48	0
BRK	94	288	7
TAP	95	0	2
TAP	95	0	5
TAP	95	48	6
TAP	95	72	4
TAP	95	96	6
TAP	95	144	1
TAP	95	168	3
TAP	95	192	1
TAP	95	240	6
TAP	95	264	4
TAP	95	288	6
TAP	95	336	1
TAP	95	360	3
STR	96	0	1
SI_	96	0	1	96	48	3
STR	96	48	0
SI_	96	48	0	96	48	4
TAP	96	96	1
TAP	96	144	0
STR	96	192	7
SI_	96	192	7	96	48	3
STR	96	240	6
SI_	96	240	6	96	48	4
TAP	96	288	7
TAP	96	336	6
TAP	97	0	2
TAP	97	48	1
TAP	97	72	3
TAP	97	96	1
TAP	97	144	6
TAP	97	168	4
TAP	97	192	6
TAP	97	240	1
TAP	97	264	3
TAP	97	288	1
TAP	97	336	6
TAP	97	360	4
STR	98	0	6
SI_	98	0	6	96	48	4
STR	98	48	7
SI_	98	48	7	96	48	3
TAP	98	96	6
TAP	98	144	7
STR	98	192	0
SI_	98	192	0	96	48	4
STR	98	240	1
SI_	98	240	1	96	48	3
TAP	98	288	0
TAP	98	336	1
TAP	99	0	5
TAP	99	48	6
TAP	99	72	7
TAP	99	96	6
TAP	99	120	7
TAP	99	144	6
TAP	99	168	7
HLD	99	192	5	48
HLD	99	240	4	48
HLD	99	288	3	48
HLD	99	336	2	48
TAP	100	0	1
TAP	100	48	0
TAP	100	72	7
TAP	100	96	0
TAP	100	120	7
TAP	100	144	0
TAP	100	168	7
HLD	100	192	1	48
HLD	100	240	2	48
HLD	100	288	3	48
HLD	100	336	4	48
TAP	101	0	5
TAP	101	96	1
TAP	101	96	2
TAP	101	192	5
TAP	101	192	6
TAP	101	240	4
TAP	101	240	7
TAP	101	336	0
TAP	101	336	4
TAP	102	48	1
TAP	102	48	5
TAP	102	96	2
TAP	102	96	6
TAP	102	144	3
TAP	102	144	7
TAP	102	192	3
TAP	102	216	4
TAP	102	240	2
TAP	102	264	5
TAP	102	288	1
TAP	102	312	6
TAP	102	336	0
TAP	102	360	7
BRK	103	0	1
BRK	103	0	6
TAP	103	96	2
TAP	103	120	2
TAP	103	144	2
TAP	103	168	2
TAP	103	192	2
TAP	103	216	2
TAP	103	240	2
TAP	103	264	2
TAP	103	288	2
TAP	103	312	2
TAP	103	336	2
TAP	103	360	2
TAP	104	0	2
TAP	104	24	2
TAP	104	48	2
TAP	104	72	2
TAP	104	96	2
TAP	104	120	2
TAP	104	144	2
TAP	104	168	2
HLD	104	192	2	72
TAP	104	288	2
TAP	104	288	3
TAP	104	300	1
TAP	104	312	0
TAP	104	324	7
TAP	104	336	6
TAP	104	348	5
TAP	104	360	4
TAP	104	372	3
BRK	105	0	2
BRK	105	0	7
STR	105	96	7
SI_	105	96	7	96	48	5
STR	105	144	0
SI_	105	144	0	96	48	4
STR	105	192	7
SI_	105	192	7	96	48	3
STR	105	240	0
SI_	105	240	0	96	48	2
STR	105	288	7
SCL	105	288	7	96	48	4
TAP	105	336	0
TAP	106	0	7
STR	106	96	0
SI_	106	96	0	96	48	2
STR	106	144	7
SI_	106	144	7	96	48	3
STR	106	192	0
SI_	106	192	0	96	48	4
STR	106	240	7
SI_	106	240	7	96	48	5
STR	106	288	0
SCR	106	288	0	96	48	3
TAP	106	336	7
TAP	107	0	0
TAP	107	96	4
TAP	107	96	5
TAP	107	144	6
TAP	107	192	0
TAP	107	192	7
TAP	107	240	1
STR	107	288	0
SI_	107	288	0	96	48	5
STR	107	288	7
SI_	107	288	7	96	48	2
TAP	108	0	0
TAP	108	0	7
TAP	108	96	3
TAP	108	96	4
TAP	108	144	2
TAP	108	192	0
TAP	108	192	1
TAP	108	240	7
TAP	108	288	1
TAP	108	288	6
TAP	109	0	2
TAP	109	0	5
TAP	109	48	7
TAP	109	60	6
TAP	109	72	5
TAP	109	84	4
BRK	109	96	0
TAP	109	144	7
TAP	109	156	6
TAP	109	168	5
TAP	109	180	4
BRK	109	192	1
TAP	109	240	7
TAP	109	252	6
TAP	109	264	5
TAP	109	276	4
BRK	109	288	2
TAP	109	336	7
TAP	109	348	6
TAP	109	360	5
TAP	109	372	4
BRK	110	0	3
TAP	110	12	2
TAP	110	24	1
TAP	110	36	0
TAP	110	48	7
TAP	110	60	6
TAP	110	72	5
TAP	110	84	4
BRK	110	96	3
TAP	110	108	2
TAP	110	120	1
TAP	110	132	0
TAP	110	144	7
TAP	110	156	6
TAP	110	168	5
TAP	110	180	4
BST	110	192	3
SI_	110	192	3	96	48	7
BRK	110	288	0
STR	111	0	0
SI_	111	0	0	96	48	4
TAP	111	48	0
TAP	111	96	0
STR	111	96	6
SI_	111	96	6	96	48	2
TAP	111	144	6
STR	111	192	1
SCR	111	192	1	96	48	4
TAP	111	192	6
TAP	111	240	1
TAP	111	288	1
STR	111	288	5
SCR	111	288	5	96	48	0
TAP	111	336	5
STR	112	0	2
SUL	112	0	2	96	48	6
TAP	112	0	5
TAP	112	48	2
TAP	112	96	2
STR	112	96	4
SUL	112	96	4	96	48	0
TAP	112	144	4
TAP	112	192	4
STR	112	192	7
SF_	112	192	7	96	48	3
BRK	112	288	7
STR	113	0	7
SI_	113	0	7	96	48	3
TAP	113	48	7
STR	113	96	1
SI_	113	96	1	96	48	5
TAP	113	96	7
TAP	113	144	1
TAP	113	192	1
STR	113	192	6
SCL	113	192	6	96	48	3
TAP	113	240	6
STR	113	288	2
SCL	113	288	2	96	48	7
TAP	113	288	6
TAP	113	336	2
TAP	114	0	2
BST	114	0	5
SUR	114	0	5	96	48	1
TAP	114	48	5
BST	114	96	3
SUR	114	96	3	96	48	7
TAP	114	96	5
TAP	114	144	3
BST	114	192	0
SF_	114	192	0	96	48	4
TAP	114	192	3
BRK	114	288	0
BRK	115	0	2
TAP	115	24	3
TAP	115	48	1
TAP	115	72	4
BRK	115	96	2
TAP	115	144	0
TAP	115	144	7
BRK	115	192	5
TAP	115	216	4
TAP	115	240	6
TAP	115	264	3
BRK	115	288	5
TAP	115	336	0
TAP	115	336	7
BRK	116	0	2
TAP	116	24	3
TAP	116	48	1
TAP	116	72	4
BRK	116	96	0
TAP	116	120	5
TAP	116	144	7
TAP	116	168	6
BRK	116	192	0
TAP	116	204	1
TAP	116	216	2
TAP	116	228	3
TAP	116	240	4
TAP	116	252	5
TAP	116	264	6
TAP	116	276	7
BRK	116	288	0
HLD	116	300	1	6
HLD	116	312	2	6
HLD	116	324	3	6
HLD	116	336	4	6
HLD	116	348	5	6
HLD	116	360	6	6
HLD	116	372	7	6
BRK	117	0	0
BRK	117	192	3
BRK	117	192	4
BST	118	0	1
SLR	118	0	1	96	144	7
BST	118	0	6
SLL	118	0	6	96	144	0
BRK	119	0	0
BRK	119	0	7

T_REC_TAP	718
T_REC_BRK	52
T_REC_XTP	0
T_REC_HLD	108
T_REC_XHO	0
T_REC_STR	111
T_REC_BST	9
T_REC_XST	0
T_REC_TTP	0
T_REC_THO	0
T_REC_SLD	124
T_REC_ALL	1122
T_NUM_TAP	829
T_NUM_BRK	61
T_NUM_HLD	108
T_NUM_SLD	124
T_NUM_ALL	1122
T_JUDGE_TAP	890
T_JUDGE_HLD	199
T_JUDGE_SLD	124
T_JUDGE_ALL	1213
TTM_EACHPAIRS	163
TTM_SCR_TAP	414500
TTM_SCR_BRK	158600
TTM_SCR_HLD	108000
TTM_SCR_SLD	186000
TTM_SCR_ALL	867100
TTM_SCR_S	835200
TTM_SCR_SS	861000
TTM_RAT_ACV	10070

