VERSION	0.00.00	1.03.00
FES_MODE	0
BPM_DEF	215.000	215.000	215.000	215.000
MET_DEF	4	4
RESOLUTION	384
CLK_DEF	384
COMPATIBLE_CODE	MA2

BPM	0	0	215.000
MET	0	0	4	4

STR	2	0	1
SXL	2	0	1	96	384	4
TAP	3	0	5
TAP	3	96	5
TAP	3	192	4
TAP	3	288	4
STR	4	0	6
SXR	4	0	6	96	384	3
TAP	5	0	2
TAP	5	96	2
TAP	5	192	3
TAP	5	192	4
TAP	6	0	1
TAP	6	96	0
TAP	6	192	7
TAP	6	288	6
STR	7	0	5
SCL	7	0	5	96	48	2
STR	7	192	1
SUR	7	192	1	96	48	5
TAP	8	0	6
TAP	8	96	7
TAP	8	192	0
TAP	8	288	1
STR	9	0	2
SCR	9	0	2	96	48	5
STR	9	192	6
SUL	9	192	6	96	48	2
HLD	10	0	1	384
TAP	10	96	3
TAP	10	192	4
TAP	10	288	5
HLD	11	0	6	384
TAP	11	96	4
TAP	11	192	3
TAP	11	288	2
TAP	12	0	1
TAP	12	48	6
TAP	12	96	1
TAP	12	144	6
TAP	12	192	1
TAP	12	288	0
TAP	12	288	2
TAP	13	0	5
TAP	13	0	7
TAP	13	96	6
TAP	13	144	4
TAP	13	192	5
TAP	13	240	3
TAP	13	288	4
TAP	13	336	2
HLD	14	0	3	192
HLD	14	192	4	192
HLD	15	0	2	192
HLD	15	192	5	192
HLD	16	0	1	192
HLD	16	192	6	192
HLD	17	0	0	192
HLD	17	192	7	192
STR	18	0	0
SF_	18	0	0	96	240	4
BST	19	0	2
SI_	19	0	2	96	192	7
BST	19	0	6
SI_	19	0	6	96	192	3
STR	20	0	0
SI_	20	0	0	96	192	3
STR	20	0	4
SI_	20	0	4	96	192	7
STR	21	0	2
SI_	21	0	2	96	192	5
STR	21	0	6
SI_	21	0	6	96	192	1
STR	22	0	0
SI_	22	0	0	96	192	5
STR	22	0	4
SI_	22	0	4	96	192	1
STR	23	0	2
SI_	23	0	2	96	48	7
STR	23	192	5
SI_	23	192	5	96	48	0
STR	24	0	3
SI_	24	0	3	96	48	7
STR	24	192	4
SI_	24	192	4	96	48	0
STR	25	0	1
SI_	25	0	1	96	48	3
STR	25	96	7
SI_	25	96	7	96	48	5
STR	25	192	0
SI_	25	192	0	96	48	4
STR	25	288	7
SI_	25	288	7	96	48	3
STR	26	0	0
SI_	26	0	0	96	48	2
STR	26	96	6
SI_	26	96	6	96	48	4
STR	26	192	7
SI_	26	192	7	96	48	3
STR	26	288	5
SCR	26	288	5	96	576	2
BRK	27	0	2
TAP	28	288	0
TAP	28	288	7
TAP	29	0	2
TAP	29	0	3
TAP	29	96	2
TAP	29	96	4
TAP	29	192	2
TAP	29	192	5
TAP	29	288	2
TAP	29	288	6
TAP	30	0	2
TAP	30	0	7
TAP	30	96	0
TAP	30	96	2
TAP	30	192	1
TAP	30	192	2
TAP	30	288	2
TAP	30	288	3
TAP	30	336	3
TAP	30	336	4
TAP	31	0	4
TAP	31	0	5
TAP	31	96	3
TAP	31	96	5
TAP	31	192	2
TAP	31	192	5
TAP	31	288	1
TAP	31	288	5
TAP	32	0	0
TAP	32	0	5
TAP	32	96	5
TAP	32	96	7
TAP	32	192	5
TAP	32	192	6
TAP	32	288	4
TAP	32	288	5
TAP	32	336	3
TAP	32	336	4
TAP	33	0	2
TAP	33	0	3
TAP	33	96	4
TAP	33	96	5
TAP	33	192	1
TAP	33	192	2
TAP	33	288	5
TAP	33	288	6
TAP	34	0	0
TAP	34	0	1
TAP	34	96	6
TAP	34	96	7
TAP	34	192	1
TAP	34	192	2
TAP	34	288	5
TAP	34	288	6
TAP	35	0	3
TAP	35	0	4
TAP	35	48	3
TAP	35	48	4
TAP	35	96	3
TAP	35	96	4
TAP	35	192	2
TAP	35	192	6
TAP	35	288	1
TAP	35	288	4
TAP	36	0	2
TAP	36	0	7
TAP	36	96	0
TAP	36	96	4
STR	36	192	6
SI_	36	192	6	96	48	3
STR	36	192	7
SI_	36	192	7	96	48	2
TAP	37	0	1
TAP	37	0	4
TAP	37	96	3
TAP	37	96	5
TAP	37	192	2
TAP	37	192	4
TAP	37	288	3
TAP	37	288	6
TAP	38	0	1
TAP	38	0	5
TAP	38	96	3
TAP	38	96	7
TAP	38	192	0
TAP	38	192	5
TAP	38	288	2
TAP	38	288	3
TAP	38	336	3
TAP	38	336	4
TAP	39	0	4
TAP	39	0	5
TAP	39	96	2
TAP	39	96	7
TAP	39	192	1
TAP	39	192	5
TAP	39	288	3
TAP	39	288	6
TAP	40	0	0
TAP	40	0	5
TAP	40	96	3
TAP	40	96	7
STR	40	192	0
SI_	40	192	0	96	48	5
STR	40	192	1
SI_	40	192	1	96	48	4
TAP	41	0	3
TAP	41	0	6
TAP	41	96	1
TAP	41	96	5
STR	41	192	3
SCL	41	192	3	96	48	0
STR	41	192	7
SUL	41	192	7	96	48	3
TAP	42	0	1
TAP	42	0	4
TAP	42	96	2
TAP	42	96	6
STR	42	192	0
SUR	42	192	0	96	48	4
STR	42	192	4
SCR	42	192	4	96	48	7
TAP	43	0	3
TAP	43	0	6
TAP	43	48	3
TAP	43	48	6
TAP	43	96	3
TAP	43	96	6
TAP	43	192	1
TAP	43	192	4
TAP	43	288	2
TAP	43	288	5
TAP	43	336	2
TAP	43	336	5
TAP	44	48	0
TAP	44	48	7
TAP	44	144	3
TAP	44	144	4
STR	44	192	3
SI_	44	192	3	96	48	0
STR	44	192	4
SI_	44	192	4	96	48	7
BRK	45	0	1
BRK	45	0	6
TAP	45	96	2
STR	45	96	3
SCR	45	96	3	96	48	6
TAP	45	192	1
TAP	45	240	1
TAP	45	288	1
TAP	45	336	1
TAP	46	0	7
STR	46	96	4
SCL	46	96	4	96	48	1
TAP	46	96	5
TAP	46	192	6
TAP	46	240	6
TAP	46	288	6
TAP	46	336	6
TAP	47	0	0
TAP	47	48	0
TAP	47	96	1
TAP	47	96	7
TAP	47	192	5
TAP	47	240	5
TAP	47	288	4
TAP	47	288	6
STR	48	0	2
SUR	48	0	2	96	96	0
STR	48	96	6
SUR	48	96	6	96	96	4
TAP	49	0	2
TAP	49	0	5
TAP	49	96	6
STR	49	96	7
SCR	49	96	7	96	48	2
TAP	49	192	5
TAP	49	240	5
TAP	49	288	5
TAP	49	336	5
TAP	50	0	3
TAP	50	0	4
STR	50	96	0
SCL	50	96	0	96	48	5
TAP	50	96	1
TAP	50	192	2
TAP	50	240	3
TAP	50	288	4
TAP	51	0	0
TAP	51	0	7
TAP	51	48	0
TAP	51	48	7
TAP	51	96	0
TAP	51	96	7
TAP	51	144	0
TAP	51	144	7
STR	51	192	0
SI_	51	192	0	96	48	3
TAP	51	192	7
STR	51	288	5
SI_	51	288	5	96	48	0
STR	52	0	2
SI_	52	0	2	96	48	5
TAP	52	96	6
TAP	52	192	0
TAP	52	192	7
TAP	52	288	3
TAP	52	288	4
TAP	53	0	1
TAP	53	0	6
STR	53	96	4
SCL	53	96	4	96	48	1
TAP	53	96	5
TAP	53	192	6
TAP	53	240	6
TAP	53	288	6
TAP	53	336	6
TAP	54	0	0
TAP	54	96	2
STR	54	96	3
SCR	54	96	3	96	48	6
TAP	54	192	1
TAP	54	240	1
TAP	54	288	1
TAP	54	336	1
TAP	55	0	7
TAP	55	48	7
TAP	55	96	0
TAP	55	96	6
TAP	55	192	2
TAP	55	240	2
TAP	55	288	1
TAP	55	288	3
STR	56	0	6
SI_	56	0	6	96	48	2
STR	56	96	0
SF_	56	96	0	96	96	4
TAP	57	0	2
HLD	57	0	6	96
TAP	57	96	7
HLD	57	192	1	96
TAP	57	192	5
TAP	57	288	0
TAP	58	0	3
HLD	58	0	6	96
TAP	58	96	5
HLD	58	192	1	96
TAP	58	192	4
TAP	58	288	2
TAP	59	0	0
HLD	59	0	3	192
HLD	59	192	4	192
HLD	60	0	6	96
HLD	60	96	7	96
HLD	60	192	0	96
HLD	60	288	1	96
STR	61	0	2
SCR	61	0	2	96	384	0
STR	62	0	0
SCR	62	0	0	96	384	6
STR	63	0	6
SCR	63	0	6	96	384	4
STR	64	0	4
SF_	64	0	4	96	192	0
STR	65	0	2
SCL	65	0	2	96	384	4
STR	66	0	4
SCL	66	0	4	96	384	6
STR	67	0	6
SCL	67	0	6	96	384	0
STR	68	0	0
SF_	68	0	0	96	192	4
HLD	69	0	3	144
HLD	69	0	5	144
TAP	69	192	3
TAP	69	192	5
TAP	70	0	2
TAP	70	0	4
TAP	70	96	3
TAP	70	96	6
TAP	70	192	0
TAP	70	240	0
TAP	70	288	0
TAP	70	336	0
HLD	71	0	1	144
HLD	71	0	7	144
TAP	71	192	1
TAP	71	192	7
TAP	72	0	0
TAP	72	0	6
TAP	72	96	1
TAP	72	96	5
TAP	72	192	2
TAP	72	192	4
TAP	72	288	3
TAP	72	288	7
HLD	73	0	2	144
HLD	73	0	4	144
TAP	73	192	2
TAP	73	192	4
TAP	74	0	3
TAP	74	0	5
TAP	74	96	1
TAP	74	96	4
TAP	74	192	2
TAP	74	192	6
TAP	74	288	0
TAP	74	288	4
TAP	75	0	3
TAP	75	0	7
TAP	75	96	1
TAP	75	96	5
TAP	75	192	3
TAP	75	192	6
TAP	75	288	2
STR	75	288	4
SCR	75	288	4	96	288	3
STR	77	0	1
SI_	77	0	1	96	48	4
TAP	77	96	6
TAP	77	144	6
STR	77	192	6
SI_	77	192	6	96	48	3
TAP	77	288	0
TAP	77	336	0
STR	78	0	0
SI_	78	0	0	96	48	4
TAP	78	96	7
TAP	78	144	7
STR	78	192	7
SI_	78	192	7	96	48	3
TAP	78	288	1
TAP	78	336	1
STR	79	0	1
SI_	79	0	1	96	48	5
STR	79	96	6
SI_	79	96	6	96	48	2
STR	79	192	1
SI_	79	192	1	96	48	5
STR	79	288	6
SI_	79	288	6	96	48	2
STR	80	0	1
SI_	80	0	1	96	48	5
STR	80	96	6
SI_	80	96	6	96	48	2
STR	80	192	1
SF_	80	192	1	96	48	5
TAP	81	0	7
TAP	81	48	7
STR	81	96	7
SCL	81	96	7	96	48	4
TAP	81	144	7
TAP	81	192	0
TAP	81	240	0
STR	81	288	0
SCR	81	288	0	96	48	3
TAP	81	336	0
TAP	82	0	7
TAP	82	48	7
STR	82	96	7
SCL	82	96	7	96	48	4
TAP	82	144	7
TAP	82	192	0
TAP	82	240	0
STR	82	288	0
SCR	82	288	0	96	48	3
TAP	82	336	0
STR	83	0	7
SI_	83	0	7	96	48	4
TAP	83	48	7
STR	83	96	0
SI_	83	96	0	96	48	3
TAP	83	144	0
STR	83	192	5
SI_	83	192	5	96	48	2
TAP	83	240	5
STR	83	288	1
SI_	83	288	1	96	48	6
TAP	83	336	1
STR	84	0	4
SI_	84	0	4	96	48	7
TAP	84	48	4
STR	84	96	3
SI_	84	96	3	96	48	0
TAP	84	144	3
STR	84	192	6
SI_	84	192	6	96	48	1
TAP	84	240	6
STR	84	288	2
SI_	84	288	2	96	48	5
TAP	84	336	2
BST	85	0	4
SCR	85	0	4	96	384	3
TAP	86	192	3
TAP	86	192	4
BRK	86	288	1
BRK	86	288	6
TAP	87	0	0
TAP	87	0	5
TAP	87	48	1
TAP	87	96	2
TAP	87	96	7
TAP	87	144	6
TAP	87	192	0
TAP	87	192	5
TAP	87	240	1
TAP	87	288	2
TAP	87	288	7
TAP	87	336	6
TAP	88	0	0
TAP	88	0	5
TAP	88	96	0
TAP	88	96	5
TAP	88	144	1
TAP	88	144	6
TAP	88	192	2
TAP	88	192	7
TAP	88	288	2
TAP	88	288	7
TAP	88	336	1
TAP	88	336	6
TAP	89	0	0
TAP	89	0	5
TAP	89	96	3
TAP	89	96	6
TAP	89	192	1
TAP	89	192	4
TAP	89	288	6
TAP	89	288	7
TAP	89	336	6
TAP	89	336	7
TAP	90	0	0
STR	90	0	5
SI_	90	0	5	96	48	2
STR	90	96	1
SI_	90	96	1	96	48	6
STR	90	192	5
SI_	90	192	5	96	48	2
TAP	90	288	1
STR	91	0	0
SCR	91	0	0	96	48	3
TAP	91	96	6
TAP	91	144	7
STR	91	192	0
SCL	91	192	0	96	48	5
TAP	91	288	2
TAP	91	336	1
STR	92	0	0
SCR	92	0	0	96	48	3
TAP	92	96	5
TAP	92	144	6
STR	92	192	7
SCL	92	192	7	96	48	4
TAP	92	288	1
TAP	92	336	0
STR	93	0	7
SCR	93	0	7	96	48	2
TAP	93	96	5
TAP	93	144	6
STR	93	192	7
SCL	93	192	7	96	96	4
STR	93	288	4
SCL	93	288	4	96	96	1
STR	94	0	1
SCL	94	0	1	96	96	6
STR	94	96	6
SCL	94	96	6	96	96	3
TAP	94	192	3
BRK	94	288	0
TAP	95	0	2
TAP	95	0	7
TAP	95	48	6
TAP	95	96	0
TAP	95	96	5
TAP	95	144	1
TAP	95	192	2
TAP	95	192	7
TAP	95	240	6
TAP	95	288	0
TAP	95	288	5
TAP	95	336	1
TAP	96	0	2
TAP	96	0	7
TAP	96	96	2
TAP	96	96	7
TAP	96	144	1
TAP	96	144	6
TAP	96	192	0
TAP	96	192	5
TAP	96	288	0
TAP	96	288	5
TAP	96	336	1
TAP	96	336	6
TAP	97	0	2
TAP	97	0	7
TAP	97	96	1
TAP	97	96	4
TAP	97	192	3
TAP	97	192	6
TAP	97	288	0
TAP	97	288	1
TAP	97	336	0
TAP	97	336	1
STR	98	0	2
SI_	98	0	2	96	48	5
TAP	98	0	7
STR	98	96	6
SI_	98	96	6	96	48	1
STR	98	192	2
SI_	98	192	2	96	48	5
TAP	98	288	6
STR	99	0	7
SCL	99	0	7	96	48	4
STR	99	96	0
SCR	99	96	0	96	48	3
STR	99	192	7
SI_	99	192	7	96	48	3
TAP	99	288	0
TAP	99	336	1
TAP	100	0	2
TAP	100	48	7
TAP	100	96	6
TAP	100	144	5
TAP	100	192	0
TAP	100	240	0
TAP	100	288	7
TAP	100	336	7
BRK	101	0	1
TAP	101	48	1
STR	101	96	1
SI_	101	96	1	96	48	5
TAP	101	144	1
BRK	101	192	6
TAP	101	240	6
STR	101	288	6
SI_	101	288	6	96	48	2
TAP	101	336	6
BST	102	0	3
SI_	102	0	3	96	48	0
BST	102	96	4
SI_	102	96	4	96	48	7
BRK	102	192	3
BRK	102	288	1
BRK	102	288	6
BRK	103	0	0
BRK	103	24	7
BRK	103	48	0
BRK	103	72	7
BRK	103	96	0
BRK	103	120	7
BRK	103	144	0
BRK	103	168	7
BRK	103	192	0
BRK	103	216	7
BRK	103	240	0
BRK	103	264	7
BRK	103	288	0
BRK	103	312	7
BRK	103	336	0
BRK	103	360	7
BRK	104	0	0
BRK	104	24	7
BRK	104	48	0
BRK	104	72	7
BRK	104	96	0
BRK	104	120	7
BRK	104	144	0
BRK	104	168	7
BRK	104	192	0
BRK	104	216	7
BRK	104	240	0
BRK	104	264	7
BRK	104	288	0
TAP	105	0	1
TAP	105	0	6
TAP	105	96	5
TAP	105	144	4
TAP	105	144	6
TAP	105	240	2
TAP	105	288	1
TAP	105	288	3
TAP	106	0	0
TAP	106	0	7
TAP	106	96	2
TAP	106	144	1
TAP	106	144	3
TAP	106	240	5
TAP	106	288	4
TAP	106	288	6
TAP	107	0	2
TAP	107	0	3
TAP	107	96	6
TAP	107	144	5
TAP	107	144	7
TAP	107	240	1
TAP	107	288	0
TAP	107	288	2
TAP	108	0	4
TAP	108	0	5
TAP	108	96	1
TAP	108	144	0
TAP	108	144	2
TAP	108	240	6
TAP	108	288	5
TAP	108	288	7
STR	109	0	1
SI_	109	0	1	96	48	4
STR	109	0	2
SI_	109	0	2	96	48	7
STR	109	192	5
SI_	109	192	5	96	48	0
STR	109	192	6
SI_	109	192	6	96	48	3
STR	110	0	1
SI_	110	0	1	96	48	3
STR	110	96	7
SI_	110	96	7	96	48	5
STR	110	192	0
SI_	110	192	0	96	48	4
BRK	110	288	7
TAP	111	0	2
TAP	111	0	7
TAP	111	48	6
TAP	111	96	0
TAP	111	96	5
TAP	111	144	1
TAP	111	192	2
TAP	111	192	7
TAP	111	240	6
TAP	111	288	0
TAP	111	288	5
TAP	111	336	1
TAP	112	0	2
TAP	112	0	7
TAP	112	48	6
TAP	112	96	0
TAP	112	96	5
TAP	112	144	1
TAP	112	192	2
TAP	112	192	7
TAP	112	240	2
TAP	112	240	7
TAP	112	288	2
TAP	112	288	7
TAP	113	0	0
TAP	113	0	5
TAP	113	48	1
TAP	113	96	2
TAP	113	96	7
TAP	113	144	6
TAP	113	192	0
TAP	113	192	5
TAP	113	240	1
TAP	113	288	2
TAP	113	288	7
TAP	113	336	6
TAP	114	0	0
TAP	114	0	5
TAP	114	48	1
TAP	114	96	2
TAP	114	96	7
TAP	114	144	6
TAP	114	192	0
TAP	114	192	5
TAP	114	240	0
TAP	114	240	5
TAP	114	288	0
TAP	114	288	5
STR	115	0	1
SI_	115	0	1	96	48	5
BRK	115	0	6
TAP	115	96	0
TAP	115	144	0
BRK	115	192	2
STR	115	192	7
SI_	115	192	7	96	48	3
TAP	115	288	1
TAP	115	336	1
STR	116	0	0
SI_	116	0	0	96	48	4
BRK	116	0	5
TAP	116	96	7
TAP	116	144	7
BRK	116	192	1
STR	116	192	6
SI_	116	192	6	96	48	2
TAP	116	288	7
TAP	116	336	7
BST	117	0	0
SF_	117	0	0	96	48	4
BST	117	192	7
SF_	117	192	7	96	48	3
BST	118	0	1
SXR	118	0	1	96	240	6
BST	118	0	5
SXR	118	0	5	96	240	2
BRK	119	0	0
BRK	119	0	4

T_REC_TAP	487
T_REC_BRK	47
T_REC_XTP	0
T_REC_HLD	26
T_REC_XHO	0
T_REC_STR	111
T_REC_BST	9
T_REC_XST	0
T_REC_TTP	0
T_REC_THO	0
T_REC_SLD	120
T_REC_ALL	800
T_NUM_TAP	598
T_NUM_BRK	56
T_NUM_HLD	26
T_NUM_SLD	120
T_NUM_ALL	800
T_JUDGE_TAP	654
T_JUDGE_HLD	90
T_JUDGE_SLD	120
T_JUDGE_ALL	864
TTM_EACHPAIRS	192
TTM_SCR_TAP	299000
TTM_SCR_BRK	145600
TTM_SCR_HLD	26000
TTM_SCR_SLD	180000
TTM_SCR_ALL	650600
TTM_SCR_S	625650
TTM_SCR_SS	645000
TTM_RAT_ACV	10086

