VERSION	0.00.00	1.03.00
FES_MODE	0
BPM_DEF	215.000	215.000	215.000	215.000
MET_DEF	4	4
RESOLUTION	384
CLK_DEF	384
COMPATIBLE_CODE	MA2

BPM	0	0	215.000

HLD	2	0	5	384
TAP	3	0	4
TAP	3	192	3
HLD	4	0	2	384
TAP	5	0	3
TAP	5	192	2
TAP	5	192	3
HLD	6	0	4	384
TAP	7	0	3
TAP	7	192	5
HLD	8	0	5	384
TAP	9	0	4
TAP	9	192	3
TAP	9	192	6
HLD	10	0	2	384
HLD	11	0	4	384
HLD	12	0	3	384
TAP	13	0	5
TAP	13	192	3
TAP	13	192	5
HLD	14	0	4	384
HLD	15	0	3	768
HLD	16	0	4	384
TAP	17	192	2
TAP	17	192	5
HLD	18	0	1	192
HLD	18	0	6	192
BST	19	0	0
SXL	19	0	0	96	480	3
BST	19	0	7
SXR	19	0	7	96	480	4
HLD	21	0	2	192
TAP	21	192	3
HLD	22	0	1	192
TAP	22	192	0
HLD	23	0	6	192
HLD	23	0	7	192
HLD	24	0	4	192
HLD	24	0	5	192
TAP	25	0	2
TAP	25	96	2
TAP	25	192	5
TAP	25	288	5
TAP	26	0	3
TAP	26	0	4
TAP	26	96	3
TAP	26	96	4
TAP	26	192	2
TAP	26	192	5
STR	26	288	3
SCL	26	288	3	96	576	4
TAP	29	0	1
TAP	29	96	1
TAP	29	192	2
TAP	29	288	3
TAP	30	0	4
TAP	30	96	5
TAP	30	192	3
TAP	30	192	6
TAP	31	0	6
TAP	31	96	6
TAP	31	192	5
TAP	31	288	4
TAP	32	0	3
TAP	32	96	2
TAP	32	192	1
TAP	32	192	4
TAP	33	0	6
TAP	33	96	6
TAP	33	192	5
TAP	33	288	4
TAP	34	0	2
TAP	34	0	3
TAP	34	96	2
TAP	34	96	3
TAP	34	192	1
TAP	34	192	4
TAP	35	0	4
TAP	35	0	5
TAP	35	96	4
TAP	35	96	5
TAP	35	192	2
TAP	35	192	3
TAP	35	288	2
TAP	35	288	3
TAP	36	0	4
TAP	36	0	5
TAP	36	96	4
TAP	36	96	5
TAP	36	192	3
TAP	36	192	6
TAP	37	0	5
TAP	37	96	4
TAP	37	96	5
TAP	37	192	5
TAP	37	288	4
TAP	37	288	6
TAP	38	0	3
TAP	38	96	2
TAP	38	192	1
TAP	38	192	4
TAP	39	0	2
TAP	39	96	2
TAP	39	96	3
TAP	39	192	2
TAP	39	288	1
TAP	39	288	3
TAP	40	0	4
TAP	40	96	5
TAP	40	192	3
TAP	40	192	6
TAP	41	0	2
TAP	41	96	2
TAP	41	96	3
TAP	41	192	1
TAP	41	288	2
TAP	42	0	3
TAP	42	96	3
TAP	42	96	4
TAP	42	192	5
TAP	42	288	6
TAP	43	0	6
TAP	43	0	7
TAP	43	96	6
TAP	43	96	7
TAP	43	192	0
TAP	43	192	1
TAP	43	288	0
TAP	43	288	1
TAP	44	0	2
TAP	44	96	3
BRK	44	192	1
BRK	44	192	4
TAP	45	0	1
TAP	45	0	3
TAP	45	96	2
TAP	45	192	4
TAP	45	192	6
TAP	45	288	5
TAP	46	0	3
TAP	46	48	3
TAP	46	96	3
TAP	46	192	4
TAP	46	240	4
TAP	46	288	4
TAP	47	0	4
TAP	47	0	6
TAP	47	96	5
TAP	47	192	1
TAP	47	192	3
TAP	47	288	2
TAP	48	0	4
TAP	48	48	4
TAP	48	96	4
TAP	48	192	2
TAP	48	192	5
HLD	49	0	4	96
HLD	49	0	5	96
TAP	49	192	4
TAP	49	192	5
TAP	49	288	3
TAP	49	288	4
HLD	50	0	2	96
HLD	50	0	3	96
TAP	50	192	2
TAP	50	192	3
TAP	50	288	3
TAP	50	288	4
HLD	51	0	4	96
HLD	51	0	6	96
TAP	51	192	4
TAP	51	192	6
STR	51	288	3
SCL	51	288	3	96	192	0
TAP	53	0	7
TAP	53	96	0
TAP	53	96	6
TAP	53	192	5
TAP	53	288	4
TAP	53	288	6
TAP	54	0	3
TAP	54	48	3
TAP	54	96	4
TAP	54	192	2
TAP	54	192	5
TAP	55	0	0
TAP	55	96	1
TAP	55	96	7
TAP	55	192	2
TAP	55	288	1
TAP	55	288	3
TAP	56	0	4
TAP	56	48	4
TAP	56	96	3
TAP	56	192	2
TAP	56	192	5
TAP	57	0	4
TAP	57	0	5
TAP	57	96	6
TAP	57	192	2
TAP	57	192	3
TAP	57	288	1
HLD	58	0	3	96
HLD	58	0	4	96
TAP	58	192	2
TAP	58	192	5
TAP	59	0	2
TAP	59	48	2
TAP	59	96	3
TAP	59	192	5
TAP	59	240	5
TAP	59	288	4
TAP	60	0	3
TAP	60	48	3
TAP	60	96	3
TAP	60	96	4
BRK	60	192	2
BRK	60	192	5
STR	61	0	3
SUR	61	0	3	96	480	4
STR	63	0	5
SCR	63	0	5	96	480	2
STR	65	0	3
SLR	65	0	3	96	480	0
STR	67	0	7
SLR	67	0	7	96	480	4
HLD	69	0	6	192
HLD	69	192	5	192
TAP	70	0	4
TAP	70	192	3
TAP	70	192	4
HLD	71	0	2	192
HLD	71	192	1	192
TAP	72	0	0
TAP	72	192	2
TAP	72	192	7
HLD	73	0	1	192
HLD	73	192	2	192
HLD	74	0	3	192
HLD	74	192	4	192
HLD	75	0	5	192
HLD	75	192	6	192
STR	76	0	7
SLR	76	0	7	96	192	3
TAP	77	0	6
TAP	77	96	6
TAP	77	192	4
TAP	77	192	5
TAP	77	288	2
TAP	77	288	3
TAP	78	0	1
TAP	78	96	0
TAP	78	192	2
TAP	78	192	7
TAP	79	0	1
TAP	79	96	1
TAP	79	192	2
TAP	79	192	3
TAP	79	288	4
TAP	79	288	5
TAP	80	0	6
TAP	80	96	7
TAP	80	192	0
TAP	80	192	5
TAP	81	0	5
TAP	81	48	5
TAP	81	96	5
TAP	81	192	2
TAP	81	240	2
TAP	81	288	2
TAP	82	0	6
TAP	82	48	6
TAP	82	96	6
TAP	82	192	1
TAP	82	240	1
TAP	82	288	1
TAP	83	0	7
TAP	83	48	7
TAP	83	96	7
TAP	83	192	0
TAP	83	240	0
TAP	83	288	0
TAP	84	0	7
TAP	84	48	7
TAP	84	96	0
TAP	84	144	0
TAP	84	192	6
TAP	84	240	6
TAP	84	288	1
TAP	84	336	1
BST	85	0	7
SF_	85	0	7	96	288	3
BRK	86	192	1
BRK	86	192	5
TAP	87	0	6
TAP	87	0	7
TAP	87	96	4
TAP	87	96	5
TAP	87	192	2
TAP	87	192	3
TAP	87	288	0
TAP	87	288	1
TAP	88	0	2
TAP	88	0	7
TAP	88	96	5
TAP	88	144	5
TAP	88	192	4
TAP	88	192	6
TAP	88	288	2
TAP	88	336	2
TAP	89	0	1
TAP	89	0	3
TAP	89	96	0
TAP	89	192	1
TAP	89	192	3
TAP	89	288	3
TAP	89	288	4
TAP	90	0	4
TAP	90	0	6
TAP	90	96	0
TAP	90	96	7
BRK	90	192	1
BRK	90	192	6
HLD	91	0	1	192
TAP	91	96	0
TAP	91	192	7
TAP	91	288	0
TAP	91	288	7
HLD	92	0	6	192
TAP	92	96	7
TAP	92	192	0
TAP	92	288	0
TAP	92	288	7
HLD	93	0	1	96
TAP	93	96	3
HLD	93	192	6	96
TAP	93	288	4
TAP	94	0	3
TAP	94	48	3
TAP	94	96	4
TAP	94	144	4
TAP	94	192	3
BRK	94	288	2
BRK	94	288	5
TAP	95	0	0
TAP	95	0	1
TAP	95	96	2
TAP	95	96	3
TAP	95	192	4
TAP	95	192	5
TAP	95	288	6
TAP	95	288	7
TAP	96	0	0
TAP	96	0	5
TAP	96	96	2
TAP	96	144	2
TAP	96	192	1
TAP	96	192	3
TAP	96	288	5
TAP	96	336	5
TAP	97	0	4
TAP	97	0	6
TAP	97	96	7
TAP	97	192	4
TAP	97	192	6
TAP	97	288	3
TAP	97	288	4
TAP	98	0	1
TAP	98	0	3
TAP	98	96	0
TAP	98	96	1
BRK	98	192	2
BRK	98	192	7
HLD	99	0	1	96
HLD	99	0	3	96
TAP	99	192	1
TAP	99	192	3
TAP	99	288	0
TAP	99	288	7
HLD	100	0	4	96
HLD	100	0	6	96
TAP	100	192	4
TAP	100	192	6
TAP	100	288	0
TAP	100	288	7
TAP	101	0	1
TAP	101	0	6
TAP	101	96	2
TAP	101	96	3
TAP	101	192	4
TAP	101	192	5
TAP	101	288	3
TAP	101	288	6
TAP	102	0	5
TAP	102	48	5
TAP	102	96	2
TAP	102	144	2
TAP	102	192	4
TAP	102	240	4
TAP	102	288	3
TAP	102	336	3
BST	103	0	4
SF_	103	0	4	96	288	0
BRK	104	192	2
BRK	104	192	6
TAP	105	0	5
TAP	105	48	5
TAP	105	96	4
TAP	105	96	6
TAP	105	192	2
TAP	105	240	2
TAP	105	288	1
TAP	105	288	3
TAP	106	0	6
TAP	106	48	6
TAP	106	96	5
TAP	106	96	7
TAP	106	192	1
TAP	106	192	6
HLD	107	0	2	192
TAP	107	96	0
TAP	107	192	7
TAP	107	288	1
TAP	107	288	6
HLD	108	0	5	192
TAP	108	96	7
TAP	108	192	0
TAP	108	288	1
TAP	108	288	6
HLD	109	0	2	96
TAP	109	96	0
HLD	109	192	5	96
TAP	109	288	7
TAP	110	0	0
TAP	110	48	0
TAP	110	96	7
TAP	110	144	7
BRK	110	192	1
BRK	110	192	6
TAP	111	0	2
TAP	111	0	3
TAP	111	96	4
TAP	111	96	5
TAP	111	192	1
TAP	111	192	3
TAP	111	288	4
TAP	111	288	6
TAP	112	0	1
TAP	112	48	0
TAP	112	96	2
TAP	112	96	7
TAP	112	192	6
TAP	112	240	7
TAP	112	288	0
TAP	112	288	5
TAP	113	0	6
TAP	113	0	7
TAP	113	96	0
TAP	113	96	1
TAP	113	192	4
TAP	113	192	6
TAP	113	288	1
TAP	113	288	3
TAP	114	0	5
TAP	114	48	4
TAP	114	96	3
TAP	114	96	6
BRK	114	192	0
BRK	114	192	1
TAP	115	0	2
TAP	115	0	7
TAP	115	48	2
TAP	115	48	7
TAP	115	96	2
TAP	115	96	7
TAP	115	192	0
TAP	115	192	5
TAP	115	240	0
TAP	115	240	5
TAP	115	288	0
TAP	115	288	5
TAP	116	0	3
TAP	116	0	7
TAP	116	48	3
TAP	116	48	7
TAP	116	96	3
TAP	116	96	7
TAP	116	192	0
TAP	116	192	4
TAP	116	240	0
TAP	116	240	4
TAP	116	288	0
TAP	116	288	4
BRK	117	0	1
BRK	117	0	2
BRK	117	192	5
BRK	117	192	6
BST	118	0	3
SI_	118	0	3	96	144	0
BST	118	0	4
SI_	118	0	4	96	144	7
BRK	119	0	1
BRK	119	0	6

T_REC_TAP	405
T_REC_BRK	24
T_REC_XTP	0
T_REC_HLD	48
T_REC_XHO	0
T_REC_STR	7
T_REC_BST	6
T_REC_XST	0
T_REC_TTP	0
T_REC_THO	0
T_REC_SLD	13
T_REC_ALL	503
T_NUM_TAP	412
T_NUM_BRK	30
T_NUM_HLD	48
T_NUM_SLD	13
T_NUM_ALL	503
T_JUDGE_TAP	442
T_JUDGE_HLD	208
T_JUDGE_SLD	13
T_JUDGE_ALL	663
TTM_EACHPAIRS	143
TTM_SCR_TAP	206000
TTM_SCR_BRK	78000
TTM_SCR_HLD	48000
TTM_SCR_SLD	19500
TTM_SCR_ALL	351500
TTM_SCR_S	338050
TTM_SCR_SS	348500
TTM_RAT_ACV	10086

