VERSION	0.00.00	1.03.00
FES_MODE	0
BPM_DEF	215.000	215.000	215.000	215.000
MET_DEF	4	4
RESOLUTION	384
CLK_DEF	384
COMPATIBLE_CODE	MA2

BPM	0	0	215.000

HLD	2	0	0	384
HLD	4	0	1	384
HLD	6	0	2	384
HLD	8	0	3	384
HLD	10	0	4	384
HLD	12	0	5	384
HLD	14	0	6	384
HLD	16	0	7	384
TAP	18	0	0
TAP	18	0	7
TAP	19	0	7
TAP	19	192	7
TAP	20	0	6
TAP	20	192	6
TAP	21	0	5
TAP	21	192	5
TAP	22	0	4
TAP	22	192	3
TAP	22	192	4
TAP	23	0	3
TAP	23	192	3
TAP	24	0	2
TAP	24	192	2
TAP	25	0	1
TAP	25	192	1
TAP	26	0	0
TAP	26	192	0
TAP	26	192	7
STR	27	0	0
SI_	27	0	0	96	288	4
TAP	29	0	4
TAP	29	0	5
TAP	29	192	4
TAP	29	192	5
TAP	30	0	3
TAP	30	0	6
TAP	30	192	3
TAP	30	192	6
TAP	31	0	2
TAP	31	0	3
TAP	31	192	2
TAP	31	192	3
TAP	32	0	1
TAP	32	0	4
TAP	32	192	1
TAP	32	192	4
TAP	33	0	0
TAP	33	0	1
TAP	33	192	0
TAP	33	192	1
TAP	34	0	2
TAP	34	0	7
TAP	34	192	2
TAP	34	192	7
TAP	35	0	6
TAP	35	0	7
TAP	35	192	6
TAP	35	192	7
TAP	36	0	0
TAP	36	0	5
TAP	36	192	0
TAP	36	192	5
TAP	37	0	4
TAP	37	0	5
TAP	37	192	4
TAP	37	192	5
TAP	38	0	3
TAP	38	96	4
TAP	38	192	3
TAP	39	0	2
TAP	39	0	3
TAP	39	192	2
TAP	39	192	3
TAP	40	0	4
TAP	40	96	3
TAP	40	192	4
TAP	41	0	4
TAP	41	0	5
TAP	41	96	4
TAP	41	96	5
TAP	41	192	4
TAP	41	192	5
TAP	42	0	2
TAP	42	0	3
TAP	42	96	2
TAP	42	96	3
TAP	42	192	2
TAP	42	192	3
TAP	43	0	4
TAP	43	96	4
TAP	43	192	3
TAP	43	288	3
TAP	44	0	3
TAP	44	0	4
TAP	44	96	3
TAP	44	96	4
TAP	44	192	2
TAP	44	192	5
TAP	45	0	6
TAP	45	96	6
TAP	45	192	6
TAP	46	0	6
TAP	46	0	7
TAP	46	192	6
TAP	46	192	7
TAP	47	0	7
TAP	47	96	7
TAP	47	192	7
TAP	48	0	0
TAP	48	0	7
TAP	48	192	0
TAP	48	192	7
TAP	49	0	0
TAP	49	96	0
TAP	49	192	0
TAP	50	0	0
TAP	50	0	1
TAP	50	192	0
TAP	50	192	1
TAP	51	0	1
TAP	51	96	1
TAP	51	192	1
TAP	52	0	2
TAP	52	0	3
TAP	52	192	1
TAP	52	192	4
TAP	53	0	0
TAP	53	96	0
TAP	53	192	0
TAP	54	0	7
TAP	54	96	7
TAP	54	192	7
TAP	55	0	6
TAP	55	96	6
TAP	55	192	6
TAP	56	0	5
TAP	56	96	5
TAP	56	192	5
TAP	57	0	4
TAP	57	96	4
TAP	57	192	4
TAP	57	288	4
TAP	58	0	3
TAP	58	96	3
TAP	58	192	3
TAP	58	288	3
TAP	59	0	2
TAP	59	96	2
TAP	59	192	2
TAP	59	288	2
TAP	60	0	1
TAP	60	96	1
TAP	60	192	1
TAP	60	288	1
BRK	61	0	0
BRK	61	0	7
TAP	62	0	0
TAP	62	0	7
TAP	63	0	1
TAP	63	0	6
TAP	64	0	1
TAP	64	0	6
TAP	65	0	2
TAP	65	0	5
TAP	66	0	2
TAP	66	0	5
TAP	67	0	3
TAP	67	0	4
TAP	68	0	3
TAP	68	0	4
TAP	69	0	3
TAP	69	192	4
TAP	70	0	3
TAP	70	192	2
TAP	70	192	4
TAP	71	0	4
TAP	71	192	3
TAP	72	0	4
TAP	72	192	3
TAP	72	192	5
TAP	73	0	2
TAP	73	192	3
TAP	74	0	2
TAP	74	192	1
TAP	74	192	3
TAP	75	0	4
TAP	75	0	5
TAP	75	192	4
TAP	75	192	5
HLD	76	0	3	192
HLD	76	0	6	192
TAP	77	0	4
TAP	77	96	4
TAP	77	192	4
TAP	78	0	3
TAP	78	96	3
TAP	78	192	3
TAP	79	0	2
TAP	79	96	2
TAP	79	192	2
TAP	80	0	1
TAP	80	96	1
TAP	80	192	1
TAP	81	0	0
TAP	81	96	0
TAP	81	192	7
TAP	81	288	7
TAP	82	0	0
TAP	82	96	0
TAP	82	192	7
TAP	82	288	7
TAP	83	0	0
TAP	83	96	7
TAP	83	192	0
TAP	83	288	7
TAP	84	0	0
TAP	84	96	7
TAP	84	192	0
BRK	85	0	1
BRK	85	0	6
TAP	87	0	3
TAP	87	96	3
TAP	87	192	4
TAP	87	288	4
TAP	88	0	3
TAP	88	96	4
TAP	88	192	2
TAP	89	0	2
TAP	89	96	2
TAP	89	192	3
TAP	89	288	3
TAP	90	0	2
TAP	90	96	3
TAP	90	192	4
TAP	91	0	5
TAP	91	96	5
TAP	91	192	4
TAP	91	288	4
TAP	92	0	5
TAP	92	96	4
TAP	92	192	3
TAP	93	0	3
TAP	93	96	4
TAP	93	192	3
TAP	93	288	4
TAP	94	0	3
TAP	94	0	4
TAP	94	96	3
TAP	94	96	4
TAP	94	192	2
TAP	94	192	5
TAP	95	0	1
TAP	95	96	1
TAP	95	192	0
TAP	95	288	0
TAP	96	0	1
TAP	96	96	0
TAP	96	192	7
TAP	97	0	6
TAP	97	96	6
TAP	97	192	7
TAP	97	288	7
TAP	98	0	6
TAP	98	96	7
TAP	98	192	0
TAP	99	0	0
TAP	99	96	0
TAP	99	192	7
TAP	99	288	7
TAP	100	0	0
TAP	100	96	7
TAP	100	192	6
TAP	101	0	5
TAP	101	96	5
TAP	101	192	4
TAP	101	288	4
TAP	102	0	3
TAP	102	96	3
BRK	102	192	2
BRK	102	192	5
TAP	103	0	0
TAP	103	96	0
TAP	103	192	1
TAP	103	192	7
TAP	104	0	1
TAP	104	0	7
TAP	104	96	1
TAP	104	96	7
TAP	104	192	0
TAP	105	0	7
TAP	105	96	7
TAP	105	192	0
TAP	105	192	6
TAP	106	0	0
TAP	106	0	6
TAP	106	96	0
TAP	106	96	6
TAP	106	192	7
TAP	107	0	5
TAP	107	96	5
TAP	107	192	4
TAP	107	192	6
TAP	108	0	2
TAP	108	96	2
TAP	108	192	1
TAP	108	192	3
TAP	109	0	4
TAP	109	96	4
TAP	109	192	3
TAP	109	192	5
TAP	109	288	3
TAP	109	288	5
TAP	110	0	3
TAP	110	96	3
TAP	110	192	2
TAP	110	192	4
TAP	111	0	2
TAP	111	0	3
TAP	111	96	2
TAP	111	96	3
TAP	111	192	4
TAP	111	288	4
TAP	112	0	2
TAP	112	0	3
TAP	112	96	2
TAP	112	96	3
TAP	112	192	4
TAP	113	0	4
TAP	113	0	5
TAP	113	96	4
TAP	113	96	5
TAP	113	192	3
TAP	113	288	3
TAP	114	0	4
TAP	114	0	5
TAP	114	96	4
TAP	114	96	5
TAP	114	192	3
TAP	115	0	3
TAP	115	0	4
TAP	115	96	3
TAP	115	96	4
TAP	115	192	2
TAP	115	288	2
TAP	116	0	3
TAP	116	0	4
TAP	116	96	3
TAP	116	96	4
TAP	116	192	5
TAP	116	288	5
TAP	117	0	3
TAP	117	0	4
TAP	117	192	2
TAP	117	192	5
HLD	118	0	1	384
HLD	118	0	6	384

T_REC_TAP	336
T_REC_BRK	6
T_REC_XTP	0
T_REC_HLD	12
T_REC_XHO	0
T_REC_STR	1
T_REC_BST	0
T_REC_XST	0
T_REC_TTP	0
T_REC_THO	0
T_REC_SLD	1
T_REC_ALL	356
T_NUM_TAP	337
T_NUM_BRK	6
T_NUM_HLD	12
T_NUM_SLD	1
T_NUM_ALL	356
T_JUDGE_TAP	343
T_JUDGE_HLD	88
T_JUDGE_SLD	1
T_JUDGE_ALL	432
TTM_EACHPAIRS	85
TTM_SCR_TAP	168500
TTM_SCR_BRK	15600
TTM_SCR_HLD	12000
TTM_SCR_SLD	1500
TTM_SCR_ALL	197600
TTM_SCR_S	191100
TTM_SCR_SS	197000
TTM_RAT_ACV	10030

