VERSION	0.00.00	1.03.00
FES_MODE	0
BPM_DEF	200.000	200.000	200.000	200.000
MET_DEF	4	4
RESOLUTION	384
CLK_DEF	384
COMPATIBLE_CODE	MA2

BPM	0	0	200.000
MET	0	0	4	4
MET	45	0	4	5
MET	50	0	4	7
MET	56	192	4	4

TAP	1	0	2
TAP	1	0	4
TAP	1	48	1
TAP	1	96	3
TAP	1	96	4
TAP	1	144	3
STR	1	192	1
SI_	1	192	1	96	48	3
TAP	1	192	4
TAP	1	288	4
TAP	2	0	2
TAP	2	0	4
TAP	2	48	1
TAP	2	96	3
TAP	2	96	4
TAP	2	144	3
TAP	2	192	1
TAP	2	192	4
TAP	2	240	2
TAP	2	288	3
TAP	2	288	4
TAP	2	336	3
TAP	3	0	2
TAP	3	0	4
TAP	3	48	1
TAP	3	96	3
TAP	3	96	4
TAP	3	144	3
TAP	3	192	1
TAP	3	240	1
TAP	3	288	1
TAP	3	288	2
TAP	3	336	1
TAP	3	336	2
HLD	4	0	3	24
HLD	4	48	3	24
HLD	4	96	3	24
HLD	4	144	3	24
HLD	4	192	3	24
HLD	4	240	3	24
HLD	4	288	3	24
TAP	4	336	3
TAP	5	0	0
TAP	5	0	4
TAP	5	48	0
TAP	5	96	0
TAP	5	96	4
TAP	5	144	0
STR	5	192	0
SI_	5	192	0	96	48	3
TAP	5	192	4
TAP	5	288	4
TAP	6	0	1
TAP	6	0	4
TAP	6	48	1
TAP	6	96	3
TAP	6	96	4
TAP	6	144	3
TAP	6	192	3
TAP	6	192	4
TAP	6	240	2
TAP	6	288	3
TAP	6	288	4
TAP	6	336	2
TAP	7	0	3
TAP	7	0	4
TAP	7	48	3
TAP	7	96	2
TAP	7	96	4
TAP	7	144	2
TAP	7	192	1
TAP	7	192	4
TAP	7	240	1
TAP	7	288	0
TAP	7	288	4
TAP	7	336	0
STR	8	0	1
SCL	8	0	1	96	96	6
TAP	8	0	4
TAP	8	96	4
TAP	8	192	4
STR	8	288	3
SCL	8	288	3	96	96	0
TAP	8	288	4
TAP	9	0	4
TAP	9	96	4
TAP	9	192	0
TAP	9	192	4
TAP	9	240	1
TAP	9	288	2
TAP	9	288	4
TAP	9	336	3
TAP	10	0	2
TAP	10	0	4
TAP	10	48	1
STR	10	96	0
SXL	10	96	0	96	96	0
TAP	10	96	4
TAP	10	192	4
TAP	10	288	4
HLD	11	0	0	96
TAP	11	0	4
TAP	11	96	4
TAP	11	192	0
TAP	11	192	4
TAP	11	240	0
TAP	11	288	0
TAP	11	288	4
TAP	11	336	0
TAP	12	0	0
TAP	12	24	1
TAP	12	48	7
TAP	12	72	6
TAP	12	96	0
TAP	12	120	1
TAP	12	144	7
TAP	12	168	6
TAP	12	192	1
TAP	12	216	2
TAP	12	240	6
TAP	12	264	5
TAP	12	288	1
TAP	12	312	2
TAP	12	336	6
TAP	12	360	5
TAP	13	0	3
TAP	13	0	4
TAP	13	48	3
TAP	13	96	3
TAP	13	96	4
TAP	13	144	3
TAP	13	192	2
TAP	13	192	4
TAP	13	264	1
TAP	13	264	3
TAP	13	336	0
TAP	13	336	2
TAP	14	0	4
TAP	14	48	3
TAP	14	48	4
TAP	14	96	3
TAP	14	96	4
TAP	14	144	3
TAP	14	144	4
TAP	14	192	3
TAP	14	192	5
TAP	14	264	4
TAP	14	264	6
TAP	14	336	5
TAP	14	336	7
TAP	15	0	3
TAP	15	48	3
TAP	15	96	3
TAP	15	144	2
TAP	15	144	4
TAP	15	192	3
TAP	15	192	5
TAP	15	240	4
TAP	15	288	4
TAP	15	336	2
TAP	15	336	5
TAP	16	0	0
TAP	16	12	1
TAP	16	24	2
TAP	16	36	3
TAP	16	48	4
TAP	16	60	5
TAP	16	72	6
TAP	16	84	7
HLD	16	96	0	96
TAP	16	192	7
TAP	16	204	6
TAP	16	216	5
TAP	16	228	4
TAP	16	240	3
TAP	16	252	2
TAP	16	264	1
TAP	16	276	0
TAP	16	288	7
TAP	17	0	3
TAP	17	0	4
TAP	17	48	4
TAP	17	96	3
TAP	17	96	4
TAP	17	144	4
TAP	17	192	3
TAP	17	192	5
TAP	17	264	4
TAP	17	264	6
TAP	17	336	5
TAP	17	336	7
TAP	18	0	3
TAP	18	48	3
TAP	18	48	4
TAP	18	96	3
TAP	18	96	4
TAP	18	144	3
TAP	18	144	4
TAP	18	192	2
TAP	18	192	4
TAP	18	264	1
TAP	18	264	3
TAP	18	336	0
TAP	18	336	2
TAP	19	0	4
TAP	19	48	4
TAP	19	96	4
TAP	19	144	3
TAP	19	144	5
TAP	19	192	2
TAP	19	192	4
TAP	19	240	3
TAP	19	288	3
TAP	19	336	2
TAP	19	336	5
HLD	20	0	3	12
HLD	20	24	4	12
HLD	20	48	2	12
HLD	20	72	5	12
HLD	20	96	1	12
HLD	20	120	6	12
HLD	20	144	0	12
HLD	20	168	7	12
HLD	20	192	1	12
HLD	20	216	6	12
HLD	20	240	2	12
HLD	20	264	5	12
TAP	20	288	3
TAP	21	0	3
TAP	21	0	7
TAP	21	48	7
TAP	21	96	3
TAP	21	96	7
TAP	21	144	7
TAP	21	192	3
STR	21	192	7
SI_	21	192	7	96	48	4
TAP	21	288	3
TAP	22	0	3
TAP	22	0	6
TAP	22	48	6
TAP	22	96	3
TAP	22	96	4
TAP	22	144	4
TAP	22	192	3
TAP	22	192	4
TAP	22	240	5
TAP	22	288	3
TAP	22	288	4
TAP	22	336	5
TAP	23	0	3
TAP	23	0	4
TAP	23	48	4
TAP	23	96	3
TAP	23	96	5
TAP	23	144	5
TAP	23	192	3
TAP	23	192	6
TAP	23	240	6
TAP	23	288	3
TAP	23	288	7
TAP	23	336	7
TAP	24	0	3
STR	24	0	6
SCR	24	0	6	96	96	1
TAP	24	96	3
TAP	24	192	3
TAP	24	288	3
TAP	24	288	4
TAP	25	0	0
TAP	25	24	1
TAP	25	48	2
TAP	25	72	3
TAP	25	96	0
TAP	25	120	1
TAP	25	144	2
TAP	25	168	3
TAP	25	192	0
TAP	25	216	1
TAP	25	240	2
TAP	25	264	3
TAP	25	288	0
TAP	25	312	1
TAP	25	336	2
TAP	25	360	3
TAP	26	0	0
TAP	26	24	1
TAP	26	48	2
TAP	26	72	3
TAP	26	96	0
TAP	26	120	1
TAP	26	144	2
TAP	26	168	3
TAP	26	192	0
TAP	26	216	7
TAP	26	240	0
TAP	26	264	7
HLD	26	288	0	96
TAP	27	0	7
TAP	27	24	6
TAP	27	48	5
TAP	27	72	4
TAP	27	96	7
TAP	27	120	6
TAP	27	144	5
TAP	27	168	4
TAP	27	192	7
TAP	27	216	6
TAP	27	240	5
TAP	27	264	4
TAP	27	288	7
TAP	27	312	6
TAP	27	336	5
TAP	27	360	4
TAP	28	0	7
TAP	28	24	0
TAP	28	48	7
TAP	28	72	0
TAP	28	96	7
TAP	28	120	0
TAP	28	144	7
TAP	28	168	0
TAP	28	192	7
TAP	28	216	0
TAP	28	240	7
TAP	28	264	0
TAP	28	288	7
HLD	29	0	3	672
TAP	29	0	4
TAP	29	144	4
TAP	29	192	4
TAP	30	0	4
TAP	30	144	4
TAP	30	288	4
TAP	30	312	3
TAP	30	336	4
STR	31	0	3
SI_	31	0	3	96	48	0
STR	31	0	4
SCL	31	0	4	96	48	1
STR	31	192	3
SI_	31	192	3	96	48	0
STR	31	192	4
SCL	31	192	4	96	48	1
TAP	32	0	3
TAP	32	0	4
TAP	32	48	1
TAP	32	48	3
TAP	32	96	3
TAP	32	96	4
TAP	32	144	1
TAP	32	144	3
TAP	32	192	3
TAP	32	192	4
TAP	32	240	1
TAP	32	240	3
TAP	32	288	3
TAP	32	288	4
TAP	33	96	5
TAP	33	144	4
TAP	33	192	3
STR	33	240	2
SUR	33	240	2	96	240	4
HLD	33	288	2	384
TAP	34	288	5
HLD	35	0	4	48
HLD	35	144	2	48
TAP	36	0	5
TAP	36	0	7
TAP	36	72	0
TAP	36	72	6
TAP	36	144	1
TAP	36	144	7
TAP	36	216	0
TAP	36	216	2
TAP	36	288	1
TAP	36	288	3
TAP	36	360	2
TAP	37	0	4
TAP	37	96	2
TAP	37	96	4
TAP	37	192	1
TAP	37	192	4
STR	37	288	0
SI_	37	288	0	96	48	2
TAP	37	288	4
STR	38	0	0
SI_	38	0	0	96	48	5
TAP	38	0	4
STR	38	96	0
SI_	38	96	0	96	48	3
TAP	38	96	4
TAP	38	192	0
TAP	38	192	4
TAP	38	288	4
HLD	39	0	0	96
TAP	39	0	4
TAP	39	96	4
HLD	39	144	0	96
TAP	39	192	4
TAP	39	288	0
TAP	39	288	4
STR	40	0	2
SI_	40	0	2	96	48	7
STR	40	0	6
SI_	40	0	6	96	48	3
TAP	40	96	2
TAP	40	96	6
TAP	40	192	1
TAP	40	192	5
TAP	40	288	3
TAP	40	288	4
TAP	41	0	3
TAP	41	0	4
TAP	41	96	3
TAP	41	96	5
TAP	41	192	3
TAP	41	192	6
TAP	41	288	3
STR	41	288	7
SI_	41	288	7	96	48	5
TAP	42	0	3
STR	42	0	7
SI_	42	0	7	96	48	2
TAP	42	96	3
STR	42	96	7
SI_	42	96	7	96	48	4
TAP	42	192	3
TAP	42	192	7
TAP	42	288	3
TAP	43	0	3
HLD	43	0	7	96
HLD	43	144	7	96
TAP	43	192	3
TAP	43	288	3
TAP	43	288	7
STR	44	0	1
SI_	44	0	1	96	48	4
STR	44	0	5
SI_	44	0	5	96	48	0
TAP	44	96	1
TAP	44	96	5
TAP	44	192	2
TAP	44	192	6
BRK	44	288	3
BRK	44	288	4
TAP	45	0	6
TAP	45	48	5
TAP	45	96	1
TAP	45	144	2
HLD	45	192	7	48
HLD	45	288	3	48
TAP	46	0	2
TAP	46	0	5
STR	46	96	0
SCR	46	96	0	96	48	3
STR	46	96	7
SCL	46	96	7	96	48	4
HLD	46	336	3	144
TAP	46	336	4
TAP	47	48	4
TAP	47	96	4
HLD	47	192	3	48
TAP	47	240	4
HLD	47	288	3	48
TAP	47	336	4
HLD	48	0	2	48
TAP	48	48	4
HLD	48	96	2	48
TAP	48	144	4
HLD	48	192	1	48
TAP	48	240	4
HLD	48	288	1	48
TAP	48	336	4
HLD	49	0	0	48
TAP	49	48	4
HLD	49	96	0	48
TAP	49	144	4
TAP	49	192	7
TAP	49	216	4
TAP	49	240	7
TAP	49	264	4
TAP	49	288	7
TAP	49	312	4
TAP	49	336	7
TAP	49	360	4
STR	50	0	7
SF_	50	0	7	96	48	3
TAP	50	240	3
TAP	50	240	4
TAP	50	336	3
TAP	50	336	5
TAP	51	0	2
TAP	51	0	4
TAP	51	48	3
HLD	51	48	5	144
TAP	51	192	3
STR	51	288	0
SI_	51	288	0	96	48	3
STR	51	288	4
SI_	51	288	4	96	48	7
TAP	52	144	3
TAP	52	144	4
TAP	52	240	2
TAP	52	240	4
TAP	52	288	3
TAP	52	288	5
TAP	52	336	2
TAP	52	336	4
TAP	53	0	3
TAP	53	0	5
TAP	53	48	2
TAP	53	48	4
STR	53	192	3
SI_	53	192	3	96	48	0
STR	53	192	7
SI_	53	192	7	96	48	4
TAP	54	48	3
TAP	54	48	4
TAP	54	144	3
TAP	54	144	5
TAP	54	192	2
TAP	54	192	4
TAP	54	240	3
HLD	54	240	5	144
TAP	55	0	3
TAP	55	96	0
TAP	55	108	1
TAP	55	120	2
TAP	55	132	3
TAP	55	144	4
TAP	55	156	5
TAP	55	168	6
TAP	55	180	7
TAP	55	192	0
TAP	55	216	2
TAP	55	240	4
TAP	55	264	6
TAP	55	288	0
TAP	55	320	3
TAP	55	352	6
TAP	56	0	1
TAP	56	96	3
TAP	56	96	4
STR	56	192	5
SI_	56	192	5	96	48	2
TAP	56	240	5
STR	56	288	1
SI_	56	288	1	96	48	6
TAP	56	336	1
STR	57	0	5
SI_	57	0	5	96	48	2
TAP	57	48	5
STR	57	96	1
SI_	57	96	1	96	48	6
TAP	57	144	1
TAP	57	192	5
TAP	57	240	5
TAP	57	288	2
TAP	57	288	5
TAP	57	336	2
TAP	57	336	5
BRK	58	0	0
TAP	58	12	1
TAP	58	24	2
TAP	58	36	3
TAP	58	48	4
TAP	58	60	5
TAP	58	72	6
TAP	58	84	7
TAP	58	96	0
TAP	58	108	1
TAP	58	120	2
TAP	58	132	3
TAP	58	144	4
TAP	58	156	5
TAP	58	168	6
TAP	58	180	7
TAP	58	192	0
TAP	58	240	0
TAP	58	288	0
TAP	58	336	4
TAP	59	0	3
TAP	59	0	5
TAP	59	48	4
TAP	59	96	4
TAP	59	144	3
TAP	59	192	2
TAP	59	240	4
TAP	59	288	5
TAP	59	336	3
BRK	60	0	7
TAP	60	12	6
TAP	60	24	5
TAP	60	36	4
TAP	60	48	3
TAP	60	60	2
TAP	60	72	1
TAP	60	84	0
TAP	60	96	7
TAP	60	108	6
TAP	60	120	5
TAP	60	132	4
TAP	60	144	3
TAP	60	156	2
TAP	60	168	1
TAP	60	180	0
TAP	60	192	7
TAP	60	204	6
TAP	60	216	5
TAP	60	228	4
TAP	60	240	3
TAP	60	252	2
TAP	60	264	1
TAP	60	276	0
TAP	60	288	7
TAP	60	300	6
TAP	60	312	5
TAP	60	324	4
TAP	60	336	3
TAP	60	348	2
TAP	60	360	1
TAP	60	372	0
TAP	61	0	7
BRK	61	96	0
TAP	61	108	1
TAP	61	120	2
TAP	61	132	3
TAP	61	144	4
TAP	61	156	5
TAP	61	168	6
TAP	61	180	7
TAP	61	192	0
TAP	61	204	1
TAP	61	216	2
TAP	61	228	3
TAP	61	240	4
TAP	61	288	4
BRK	62	0	7
TAP	62	12	6
TAP	62	24	5
TAP	62	36	4
BRK	62	96	0
TAP	62	108	1
TAP	62	120	2
TAP	62	132	3
BRK	62	192	7
TAP	62	204	6
TAP	62	216	5
TAP	62	228	4
TAP	62	240	3
TAP	62	252	2
TAP	62	264	1
TAP	62	276	0
TAP	62	288	7
TAP	62	300	6
TAP	62	312	5
TAP	62	324	4
TAP	62	336	3
TAP	63	0	3
BRK	63	96	7
TAP	63	108	6
TAP	63	120	5
TAP	63	132	4
TAP	63	144	3
TAP	63	156	2
TAP	63	168	1
TAP	63	180	0
TAP	63	192	7
TAP	63	204	6
TAP	63	216	5
TAP	63	228	4
TAP	63	240	3
TAP	63	252	2
TAP	63	264	1
TAP	63	276	0
HLD	63	288	7	6
HLD	63	300	6	6
HLD	63	312	5	6
HLD	63	324	4	6
HLD	63	336	3	6
HLD	63	348	2	6
HLD	63	360	1	6
HLD	63	372	0	6
HLD	64	0	7	6
HLD	64	12	6	6
HLD	64	24	5	6
HLD	64	36	4	6
HLD	64	48	3	6
HLD	64	60	2	6
STR	64	72	1
SI_	64	72	1	96	696	5
HLD	64	84	0	6
TAP	64	96	7
TAP	64	120	5
TAP	64	144	3
TAP	64	168	1
TAP	64	192	7
BRK	66	96	1
BRK	66	144	5
TAP	66	192	2
TAP	66	216	3
TAP	66	240	2
TAP	66	264	1
TAP	66	288	2
TAP	66	312	3
TAP	66	336	2
TAP	66	360	1
TAP	67	0	2
TAP	67	24	3
TAP	67	48	2
TAP	67	72	1
TAP	67	96	2
BRK	67	192	3
BRK	67	192	7
BRK	67	240	3
BRK	67	288	3
BRK	67	288	7
BRK	67	336	3
BRK	68	0	3
BRK	68	0	7
BRK	68	48	3
BRK	68	96	3
BRK	68	96	7
TAP	68	192	5
TAP	68	216	4
TAP	68	240	5
TAP	68	264	6
TAP	68	288	5
TAP	68	312	4
TAP	68	336	5
TAP	68	360	6
TAP	69	0	5
TAP	69	24	4
TAP	69	48	5
TAP	69	72	6
TAP	69	96	5
TAP	69	192	3
TAP	69	216	4
TAP	69	240	3
TAP	69	288	2
TAP	69	288	4
TAP	69	336	3
TAP	69	336	5
TAP	70	0	4
TAP	70	24	3
TAP	70	72	7
TAP	70	96	0
TAP	70	96	7
HLD	70	192	6	24
HLD	70	240	5	24
HLD	70	288	4	24
HLD	70	336	3	24
HLD	71	0	2	24
HLD	71	48	1	24
STR	71	96	0
SI_	71	96	0	96	48	2
STR	71	96	7
SI_	71	96	7	96	48	5
STR	71	192	0
SI_	71	192	0	96	48	4
STR	71	192	7
SI_	71	192	7	96	48	3
STR	71	288	0
SI_	71	288	0	96	48	2
STR	71	288	7
SI_	71	288	7	96	48	5
STR	72	0	0
SI_	72	0	0	96	48	4
STR	72	0	7
SI_	72	0	7	96	48	3
TAP	72	96	0
TAP	72	96	7
HLD	72	192	3	48
TAP	72	192	4
TAP	72	240	4
TAP	72	288	2
HLD	72	288	5	48
TAP	72	336	2
HLD	73	0	1	48
TAP	73	0	6
TAP	73	48	6
TAP	73	96	0
HLD	73	96	7	48
TAP	73	144	0
HLD	73	192	1	48
HLD	73	192	3	48
HLD	73	264	2	48
HLD	73	264	4	48
HLD	73	336	3	48
HLD	73	336	5	48
HLD	74	24	4	48
HLD	74	24	6	48
TAP	74	96	5
TAP	74	96	7
STR	74	192	1
SI_	74	192	1	96	48	3
TAP	74	192	4
TAP	74	240	4
BRK	74	288	5
TAP	74	336	5
TAP	75	0	3
STR	75	0	6
SI_	75	0	6	96	48	4
TAP	75	48	3
BRK	75	96	2
TAP	75	144	2
STR	75	192	1
SI_	75	192	1	96	48	3
TAP	75	192	4
TAP	75	240	4
BRK	75	288	5
TAP	75	336	5
TAP	76	0	3
STR	76	0	6
SI_	76	0	6	96	48	4
TAP	76	48	2
BST	76	96	1
SI_	76	96	1	96	48	3
TAP	76	144	1
BST	76	192	7
SI_	76	192	7	96	48	5
TAP	76	240	7
BST	76	288	0
SI_	76	288	0	96	48	2
TAP	76	336	0
BST	77	0	6
SI_	77	0	6	96	48	4
TAP	77	48	6
BRK	77	96	0
TAP	77	144	0
TAP	77	192	0
TAP	77	216	1
TAP	77	240	2
TAP	77	264	3
TAP	77	288	0
TAP	77	312	1
TAP	77	336	2
TAP	77	360	3
TAP	78	0	0
TAP	78	24	1
TAP	78	48	2
TAP	78	72	3
HLD	78	96	0	6
HLD	78	108	1	6
HLD	78	120	2	6
HLD	78	132	3	6
HLD	78	144	0	6
HLD	78	156	1	6
HLD	78	168	2	6
HLD	78	180	3	6
BST	78	192	0
SV_	78	192	0	96	48	7

T_REC_TAP	641
T_REC_BRK	26
T_REC_XTP	0
T_REC_HLD	84
T_REC_XHO	0
T_REC_STR	46
T_REC_BST	5
T_REC_XST	0
T_REC_TTP	0
T_REC_THO	0
T_REC_SLD	51
T_REC_ALL	853
T_NUM_TAP	687
T_NUM_BRK	31
T_NUM_HLD	84
T_NUM_SLD	51
T_NUM_ALL	853
T_JUDGE_TAP	718
T_JUDGE_HLD	117
T_JUDGE_SLD	51
T_JUDGE_ALL	886
TTM_EACHPAIRS	160
TTM_SCR_TAP	343500
TTM_SCR_BRK	80600
TTM_SCR_HLD	84000
TTM_SCR_SLD	76500
TTM_SCR_ALL	584600
TTM_SCR_S	564100
TTM_SCR_SS	581500
TTM_RAT_ACV	10053

