VERSION	0.00.00	1.03.00
FES_MODE	0
BPM_DEF	200.000	200.000	200.000	200.000
MET_DEF	4	4
RESOLUTION	384
CLK_DEF	384
COMPATIBLE_CODE	MA2

BPM	0	0	200.000
MET	0	0	4	4
MET	45	0	4	5
MET	50	0	4	7
MET	56	192	4	4

TAP	1	0	2
HLD	1	0	5	1152
TAP	1	96	1
TAP	1	192	3
TAP	1	288	3
TAP	2	0	2
TAP	2	96	1
TAP	2	192	3
TAP	2	288	3
TAP	3	0	2
TAP	3	96	1
TAP	3	192	2
TAP	3	240	2
TAP	3	288	2
TAP	3	336	2
STR	4	0	2
SXL	4	0	2	96	192	5
TAP	5	0	6
TAP	5	0	7
TAP	5	96	3
TAP	5	96	4
TAP	5	192	5
TAP	5	240	4
TAP	5	288	3
TAP	5	288	6
TAP	6	0	0
TAP	6	0	1
TAP	6	96	3
TAP	6	96	4
TAP	6	192	2
TAP	6	240	3
TAP	6	288	1
TAP	6	288	4
TAP	7	0	7
TAP	7	48	7
TAP	7	96	7
TAP	7	144	7
STR	7	192	7
SI_	7	192	7	96	48	3
STR	8	0	2
SLL	8	0	2	96	144	3
STR	8	0	4
SLR	8	0	4	96	144	3
TAP	8	288	1
TAP	8	288	5
STR	9	0	3
SI_	9	0	3	96	48	1
STR	9	0	7
SI_	9	0	7	96	48	5
STR	9	192	0
SI_	9	192	0	96	48	2
STR	9	192	4
SI_	9	192	4	96	48	6
STR	10	0	3
SI_	10	0	3	96	48	0
STR	10	0	7
SI_	10	0	7	96	48	4
TAP	10	192	1
TAP	10	192	5
TAP	10	288	2
TAP	10	288	6
STR	11	0	3
SI_	11	0	3	96	48	1
STR	11	0	7
SI_	11	0	7	96	48	5
STR	11	192	0
SI_	11	192	0	96	48	2
STR	11	192	4
SI_	11	192	4	96	48	6
STR	12	0	3
SLR	12	0	3	96	192	2
STR	12	0	7
SLR	12	0	7	96	192	6
TAP	13	0	5
TAP	13	48	5
TAP	13	96	5
TAP	13	144	5
TAP	13	192	4
TAP	13	192	5
TAP	13	264	3
TAP	13	264	4
TAP	13	336	2
TAP	13	336	3
TAP	14	48	1
TAP	14	96	1
TAP	14	144	1
TAP	14	192	0
TAP	14	192	1
TAP	14	264	0
TAP	14	264	7
TAP	14	336	6
TAP	14	336	7
TAP	15	0	6
TAP	15	0	7
TAP	15	72	0
TAP	15	72	7
TAP	15	144	0
TAP	15	144	1
TAP	15	240	2
TAP	15	288	2
TAP	15	336	2
STR	16	0	2
SI_	16	0	2	96	48	5
HLD	16	192	1	96
TAP	17	0	2
TAP	17	48	2
TAP	17	96	2
TAP	17	144	2
TAP	17	192	2
TAP	17	192	3
TAP	17	264	3
TAP	17	264	4
TAP	17	336	4
TAP	17	336	5
TAP	18	48	6
TAP	18	96	6
TAP	18	144	6
TAP	18	192	6
TAP	18	192	7
TAP	18	264	0
TAP	18	264	7
TAP	18	336	0
TAP	18	336	1
TAP	19	0	0
TAP	19	0	1
TAP	19	72	0
TAP	19	72	7
TAP	19	144	6
TAP	19	144	7
TAP	19	240	5
TAP	19	288	5
TAP	19	336	5
STR	20	0	5
SXR	20	0	5	96	192	2
STR	21	0	0
SI_	21	0	0	96	48	4
STR	21	0	1
SI_	21	0	1	96	48	3
STR	21	192	3
SI_	21	192	3	96	48	7
STR	21	192	4
SI_	21	192	4	96	48	6
STR	22	0	6
SI_	22	0	6	96	48	2
STR	22	0	7
SI_	22	0	7	96	48	1
STR	22	192	1
SI_	22	192	1	96	48	5
STR	22	192	2
SI_	22	192	2	96	48	4
STR	23	0	4
SI_	23	0	4	96	48	0
STR	23	0	5
SI_	23	0	5	96	48	7
STR	23	192	0
SI_	23	192	0	96	48	2
STR	23	192	7
SI_	23	192	7	96	48	3
STR	24	0	2
SCL	24	0	2	96	192	5
STR	24	0	3
SUL	24	0	3	96	192	4
TAP	25	0	2
TAP	25	24	3
TAP	25	48	2
TAP	25	96	1
TAP	25	96	4
TAP	25	192	2
TAP	25	216	3
TAP	25	240	2
TAP	25	288	1
TAP	25	288	4
TAP	26	0	2
TAP	26	24	3
TAP	26	48	2
TAP	26	96	1
TAP	26	96	4
TAP	26	192	6
TAP	26	216	7
TAP	26	240	6
TAP	26	288	1
TAP	26	312	0
TAP	26	336	1
TAP	27	0	5
TAP	27	24	4
TAP	27	48	5
TAP	27	96	3
TAP	27	96	6
TAP	27	192	5
TAP	27	216	4
TAP	27	240	5
TAP	27	288	3
TAP	27	288	6
TAP	28	0	5
TAP	28	48	5
TAP	28	96	5
TAP	28	144	5
TAP	28	192	6
TAP	28	216	7
TAP	28	240	6
TAP	28	288	1
TAP	28	312	0
TAP	28	336	1
STR	29	0	2
SCR	29	0	2	96	48	5
TAP	29	144	6
STR	29	192	6
SUL	29	192	6	96	48	2
STR	30	0	1
SCL	30	0	1	96	48	6
TAP	30	144	5
TAP	30	288	0
TAP	30	312	7
TAP	30	336	0
TAP	30	360	7
STR	31	0	0
SI_	31	0	0	96	48	3
STR	31	192	0
SCR	31	192	0	96	48	3
STR	32	0	0
SI_	32	0	0	96	48	3
STR	32	96	7
SI_	32	96	7	96	48	4
STR	32	192	0
SCR	32	192	0	96	48	3
TAP	32	288	7
STR	33	0	5
SCL	33	0	5	96	48	2
TAP	33	144	1
STR	33	192	1
SUR	33	192	1	96	48	5
STR	34	0	6
SCR	34	0	6	96	48	1
TAP	34	144	2
TAP	34	288	7
TAP	34	312	0
TAP	34	336	7
TAP	34	360	0
STR	35	0	7
SF_	35	0	7	96	48	3
HLD	36	0	6	72
HLD	36	72	5	72
HLD	36	144	4	72
HLD	36	216	3	72
HLD	36	288	2	72
TAP	36	360	1
TAP	37	0	2
TAP	37	96	1
TAP	37	96	2
TAP	37	192	2
TAP	37	288	1
TAP	37	288	2
TAP	38	0	0
TAP	38	0	3
TAP	38	96	1
TAP	38	96	2
TAP	38	192	0
STR	38	192	3
SI_	38	192	3	96	48	7
HLD	39	0	5	96
HLD	39	0	6	96
HLD	39	144	5	96
HLD	39	144	6	96
TAP	39	288	5
TAP	39	288	6
TAP	40	0	3
TAP	40	0	4
TAP	40	96	1
TAP	40	96	2
STR	40	192	0
SI_	40	192	0	96	48	3
STR	40	192	7
SI_	40	192	7	96	48	4
TAP	41	0	5
TAP	41	96	5
TAP	41	96	6
TAP	41	192	5
TAP	41	288	5
TAP	41	288	6
TAP	42	0	4
TAP	42	0	7
TAP	42	96	5
TAP	42	96	6
STR	42	192	4
SI_	42	192	4	96	48	0
TAP	42	192	7
TAP	43	0	1
TAP	43	0	2
TAP	43	96	5
TAP	43	96	6
STR	43	192	0
SI_	43	192	0	96	48	2
STR	43	192	7
SI_	43	192	7	96	48	5
HLD	44	0	2	192
HLD	44	0	5	192
TAP	45	0	0
TAP	45	0	1
TAP	45	96	5
TAP	45	96	6
TAP	45	192	2
TAP	45	192	3
TAP	45	240	2
TAP	45	240	3
TAP	45	336	1
TAP	46	0	2
TAP	46	48	3
TAP	46	96	4
TAP	46	96	5
TAP	46	192	1
TAP	46	192	2
TAP	46	288	6
TAP	46	288	7
TAP	46	336	6
TAP	46	336	7
TAP	47	48	5
TAP	47	96	6
TAP	47	144	7
HLD	47	192	0	48
HLD	47	288	0	48
HLD	48	0	0	48
HLD	48	96	0	48
HLD	48	192	0	48
HLD	48	192	7	48
HLD	48	288	0	48
HLD	48	288	7	48
HLD	49	0	0	48
HLD	49	0	7	48
HLD	49	96	0	48
HLD	49	96	7	48
TAP	49	192	0
TAP	49	192	7
TAP	49	240	0
TAP	49	240	7
HLD	49	288	0	48
HLD	49	288	7	48
STR	50	0	0
SI_	50	0	0	96	48	4
STR	50	0	7
SI_	50	0	7	96	48	3
TAP	50	240	3
TAP	50	240	4
TAP	50	336	2
TAP	51	0	3
TAP	51	48	4
STR	51	96	5
SI_	51	96	5	96	48	2
TAP	51	192	2
STR	51	288	1
SI_	51	288	1	96	48	6
TAP	52	0	6
TAP	52	144	3
TAP	52	144	4
TAP	52	240	2
TAP	52	288	3
TAP	52	336	4
STR	53	0	5
SI_	53	0	5	96	48	2
TAP	53	96	2
STR	53	192	1
SI_	53	192	1	96	48	6
TAP	53	288	6
TAP	54	48	3
TAP	54	48	4
TAP	54	144	1
TAP	54	192	0
TAP	54	240	7
STR	54	288	6
SI_	54	288	6	96	48	1
STR	55	0	2
SCL	55	0	2	96	288	5
TAP	56	192	2
TAP	56	240	3
TAP	56	288	1
TAP	56	288	4
TAP	57	0	4
TAP	57	0	5
TAP	57	48	3
TAP	57	48	6
TAP	57	144	0
TAP	57	144	7
TAP	57	240	2
TAP	57	240	5
TAP	57	288	2
STR	57	288	5
SSR	57	288	5	96	144	1
STR	58	192	3
SCL	58	192	3	96	48	0
TAP	58	288	0
STR	59	0	7
SCL	59	0	7	96	48	4
TAP	59	96	4
TAP	59	192	3
TAP	59	240	2
TAP	59	240	4
TAP	59	336	4
HLD	60	0	3	336
HLD	60	0	5	336
HLD	61	96	1	144
HLD	61	96	4	144
HLD	62	0	2	48
HLD	62	0	6	48
HLD	62	96	1	48
HLD	62	96	5	48
HLD	62	192	3	144
HLD	62	192	7	144
HLD	63	96	0	48
HLD	63	96	7	48
TAP	63	192	0
TAP	63	216	7
TAP	63	240	0
TAP	63	264	7
TAP	63	288	0
TAP	63	312	7
TAP	63	336	0
TAP	63	360	7
TAP	64	0	0
TAP	64	24	7
TAP	64	48	0
TAP	64	72	7
TAP	64	96	0
TAP	64	120	7
TAP	64	144	0
STR	64	192	1
SI_	64	192	1	96	528	6
STR	64	192	2
SI_	64	192	2	96	528	5
BRK	66	96	3
BRK	66	96	7
TAP	66	192	5
TAP	66	216	4
TAP	66	240	5
TAP	66	288	0
TAP	66	288	1
TAP	67	0	2
TAP	67	24	3
TAP	67	48	2
TAP	67	96	6
TAP	67	96	7
STR	67	192	0
SCR	67	192	0	96	48	3
STR	67	192	4
SCR	67	192	4	96	48	7
STR	68	0	3
SCL	68	0	3	96	48	0
STR	68	0	7
SCL	68	0	7	96	48	4
TAP	68	192	2
TAP	68	216	3
TAP	68	240	2
TAP	68	288	6
TAP	68	288	7
TAP	69	0	5
TAP	69	24	4
TAP	69	48	5
TAP	69	96	0
TAP	69	96	1
TAP	69	192	2
TAP	69	216	3
TAP	69	240	2
TAP	69	288	1
TAP	69	288	4
TAP	69	336	1
TAP	69	336	4
TAP	70	0	2
TAP	70	0	5
TAP	70	48	2
TAP	70	48	5
TAP	70	96	3
TAP	70	96	6
TAP	70	144	3
TAP	70	144	6
STR	70	192	7
SF_	70	192	7	96	48	3
STR	71	0	0
SF_	71	0	0	96	48	4
STR	71	192	7
SI_	71	192	7	96	48	3
STR	71	288	0
SI_	71	288	0	96	48	2
STR	72	0	6
SI_	72	0	6	96	48	4
TAP	72	96	7
TAP	72	192	2
TAP	72	240	1
TAP	72	288	0
TAP	72	336	7
TAP	73	0	6
TAP	73	48	5
STR	73	96	3
SCL	73	96	3	96	288	4
STR	73	96	4
SUL	73	96	4	96	288	3
STR	74	192	0
SF_	74	192	0	96	48	4
STR	75	0	7
SF_	75	0	7	96	48	3
STR	75	192	0
SF_	75	192	0	96	48	4
STR	76	0	7
SF_	76	0	7	96	48	3
STR	76	192	0
SI_	76	192	0	96	48	4
STR	76	288	6
SI_	76	288	6	96	48	2
STR	77	0	1
SI_	77	0	1	96	48	5
STR	77	96	7
SI_	77	96	7	96	48	3
STR	77	192	0
SI_	77	192	0	96	48	4
TAP	77	240	0
STR	77	288	6
SI_	77	288	6	96	48	2
TAP	77	336	6
STR	78	0	1
SI_	78	0	1	96	48	5
TAP	78	48	1
STR	78	96	7
SI_	78	96	7	96	48	3
TAP	78	144	7
BRK	78	192	0

T_REC_TAP	308
T_REC_BRK	3
T_REC_XTP	0
T_REC_HLD	39
T_REC_XHO	0
T_REC_STR	86
T_REC_BST	0
T_REC_XST	0
T_REC_TTP	0
T_REC_THO	0
T_REC_SLD	86
T_REC_ALL	522
T_NUM_TAP	394
T_NUM_BRK	3
T_NUM_HLD	39
T_NUM_SLD	86
T_NUM_ALL	522
T_JUDGE_TAP	397
T_JUDGE_HLD	98
T_JUDGE_SLD	86
T_JUDGE_ALL	581
TTM_EACHPAIRS	114
TTM_SCR_TAP	197000
TTM_SCR_BRK	7800
TTM_SCR_HLD	39000
TTM_SCR_SLD	129000
TTM_SCR_ALL	372800
TTM_SCR_S	361350
TTM_SCR_SS	372500
TTM_RAT_ACV	10008

