VERSION	0.00.00	1.03.00
FES_MODE	0
BPM_DEF	200.000	200.000	200.000	200.000
MET_DEF	4	4
RESOLUTION	384
CLK_DEF	384
COMPATIBLE_CODE	MA2

BPM	0	0	200.000
MET	0	0	4	4
MET	45	0	4	5
MET	50	0	4	7
MET	55	96	4	5
MET	56	192	4	4

TAP	1	0	2
TAP	1	96	2
TAP	1	192	3
TAP	1	288	3
TAP	2	0	4
TAP	2	96	4
TAP	2	192	5
TAP	2	288	5
TAP	3	0	4
TAP	3	96	4
TAP	3	192	3
TAP	3	288	3
TAP	4	0	3
TAP	4	0	4
TAP	4	96	3
TAP	4	96	4
TAP	4	192	2
TAP	4	192	5
TAP	5	0	2
TAP	5	96	2
TAP	5	192	1
TAP	5	192	3
TAP	6	0	5
TAP	6	96	5
TAP	6	192	4
TAP	6	192	6
TAP	7	0	3
TAP	7	96	3
TAP	7	192	4
STR	7	288	4
SCR	7	288	4	96	192	7
HLD	9	0	2	288
TAP	9	96	3
TAP	9	192	3
TAP	9	288	3
TAP	10	0	4
TAP	10	96	4
TAP	10	192	3
TAP	10	192	5
HLD	11	0	6	288
TAP	11	96	7
TAP	11	192	7
STR	11	288	7
SSL	11	288	7	96	288	3
HLD	13	0	4	96
HLD	13	0	5	96
TAP	13	192	4
TAP	13	192	5
TAP	13	288	4
TAP	13	288	5
HLD	14	0	2	96
HLD	14	0	3	96
TAP	14	192	2
TAP	14	192	3
TAP	14	288	2
TAP	14	288	3
HLD	15	0	3	96
HLD	15	0	4	96
TAP	15	192	3
TAP	15	192	4
STR	15	288	3
SI_	15	288	3	96	240	0
STR	15	288	4
SI_	15	288	4	96	240	7
HLD	17	0	0	96
HLD	17	0	1	96
TAP	17	192	0
TAP	17	192	1
TAP	17	288	0
TAP	17	288	1
HLD	18	0	6	96
HLD	18	0	7	96
TAP	18	192	6
TAP	18	192	7
TAP	18	288	6
TAP	18	288	7
HLD	19	0	0	96
HLD	19	0	7	96
TAP	19	192	0
TAP	19	192	7
STR	19	288	0
SCR	19	288	0	96	240	3
STR	19	288	7
SCL	19	288	7	96	240	4
TAP	21	0	2
TAP	21	96	2
TAP	21	192	3
TAP	21	192	4
TAP	21	288	2
TAP	22	0	5
TAP	22	96	5
TAP	22	192	3
TAP	22	192	4
TAP	22	288	5
TAP	23	0	4
TAP	23	0	6
TAP	23	96	4
TAP	23	96	6
TAP	23	192	1
TAP	23	192	3
TAP	23	288	1
TAP	23	288	3
TAP	24	0	3
TAP	24	0	4
TAP	24	96	2
TAP	24	96	5
BRK	24	192	1
BRK	24	192	6
HLD	25	0	2	96
TAP	25	96	3
HLD	25	192	5	96
TAP	25	288	4
HLD	26	0	1	96
TAP	26	96	3
TAP	26	192	0
TAP	26	192	7
TAP	26	288	0
TAP	26	288	7
HLD	27	0	1	96
TAP	27	96	0
HLD	27	192	6	96
TAP	27	288	7
TAP	28	0	0
TAP	28	0	7
TAP	28	96	1
TAP	28	96	6
BRK	28	192	2
BRK	28	192	5
HLD	29	0	2	192
HLD	29	192	3	192
HLD	30	0	4	192
TAP	30	192	5
HLD	31	0	4	96
HLD	31	0	5	96
HLD	31	192	2	96
HLD	31	192	3	96
TAP	32	0	3
TAP	32	0	4
TAP	32	96	3
TAP	32	96	4
TAP	32	192	3
TAP	32	192	4
TAP	32	288	3
TAP	32	288	4
HLD	33	0	2	96
HLD	33	0	5	96
HLD	33	192	2	96
HLD	33	192	5	96
HLD	34	0	4	96
HLD	34	0	6	96
HLD	34	192	1	96
HLD	34	192	3	96
TAP	35	0	2
TAP	35	96	3
TAP	35	192	4
STR	35	288	5
SUR	35	288	5	96	288	2
TAP	37	0	1
TAP	37	96	1
TAP	37	192	2
TAP	37	288	2
TAP	38	0	3
TAP	38	96	3
TAP	38	96	4
TAP	38	192	2
TAP	38	192	5
HLD	39	0	1	96
TAP	39	96	3
HLD	39	192	6	96
TAP	39	288	4
BRK	40	0	2
BRK	40	0	3
BRK	40	96	1
BRK	40	96	4
BRK	40	192	0
BRK	40	192	5
HLD	41	0	7	384
TAP	41	96	0
TAP	41	192	0
TAP	41	288	0
TAP	42	0	0
TAP	42	96	1
TAP	42	96	6
TAP	42	192	2
TAP	42	192	5
HLD	43	0	6	96
TAP	43	96	4
HLD	43	192	1	96
TAP	43	288	3
BRK	44	0	4
BRK	44	0	5
BRK	44	96	3
BRK	44	96	6
BRK	44	192	2
BRK	44	192	7
TAP	45	0	3
TAP	45	0	4
TAP	45	96	4
TAP	45	96	5
TAP	45	192	3
TAP	45	192	4
TAP	45	288	2
TAP	45	288	3
TAP	46	0	3
TAP	46	0	4
TAP	46	96	4
TAP	46	96	5
HLD	46	192	3	288
HLD	46	192	6	288
BRK	47	192	7
BRK	47	288	7
BRK	48	0	0
BRK	48	96	0
BRK	48	192	0
BRK	48	192	7
BRK	48	288	0
BRK	48	288	7
BRK	49	0	0
BRK	49	0	7
BRK	49	96	0
BRK	49	96	7
BRK	49	192	1
BRK	49	192	6
BRK	49	288	2
BRK	49	288	5
STR	50	0	2
SLR	50	0	2	96	384	0
STR	51	288	6
SLR	51	288	6	96	384	4
STR	53	192	3
SLL	53	192	3	96	384	5
HLD	55	96	4	384
HLD	55	96	6	384
HLD	56	192	3	96
HLD	56	192	4	96
TAP	57	0	3
TAP	57	0	4
TAP	57	96	3
TAP	57	96	4
TAP	57	192	2
TAP	57	192	5
STR	57	288	2
SI_	57	288	2	96	96	0
STR	57	288	5
SI_	57	288	5	96	96	7
TAP	58	192	1
TAP	58	288	2
TAP	59	0	3
TAP	59	0	4
TAP	59	96	3
TAP	59	96	4
TAP	59	192	5
TAP	59	288	6
TAP	60	0	0
TAP	60	0	7
TAP	60	96	0
TAP	60	96	7
TAP	60	192	7
TAP	60	288	6
TAP	61	0	4
TAP	61	0	5
TAP	61	96	4
TAP	61	96	5
TAP	61	192	3
TAP	61	288	2
TAP	62	0	0
TAP	62	0	1
TAP	62	96	0
TAP	62	96	1
TAP	62	192	2
TAP	62	288	3
TAP	63	0	4
STR	63	96	5
SXR	63	96	5	96	336	7
HLD	64	192	0	672
BRK	66	96	7
TAP	66	192	0
TAP	66	192	1
TAP	66	288	2
TAP	66	288	3
TAP	67	0	4
TAP	67	0	5
TAP	67	96	6
TAP	67	96	7
TAP	67	192	0
TAP	67	192	1
TAP	67	288	2
TAP	67	288	7
TAP	68	0	6
TAP	68	0	7
TAP	68	96	0
TAP	68	96	5
TAP	68	192	2
TAP	68	192	3
TAP	68	288	1
TAP	68	288	4
TAP	69	0	4
TAP	69	0	5
TAP	69	96	3
TAP	69	96	6
TAP	69	192	1
TAP	69	240	1
TAP	69	288	1
TAP	70	0	6
TAP	70	48	6
BRK	70	96	6
TAP	70	192	2
TAP	70	240	2
TAP	70	288	2
TAP	70	288	3
TAP	71	0	5
TAP	71	48	5
TAP	71	96	4
TAP	71	96	5
TAP	71	192	4
TAP	71	192	6
TAP	71	288	1
TAP	71	288	3
TAP	72	0	4
TAP	72	0	6
TAP	72	96	1
TAP	72	96	3
TAP	72	192	0
TAP	72	288	2
TAP	72	288	3
TAP	73	0	7
STR	73	96	4
SCL	73	96	4	96	240	1
STR	73	96	5
SCR	73	96	5	96	240	0
HLD	74	192	0	96
HLD	74	192	6	96
HLD	75	0	2	96
HLD	75	0	7	96
HLD	75	192	0	96
HLD	75	192	5	96
TAP	76	0	0
TAP	76	0	5
TAP	76	96	1
TAP	76	96	6
TAP	76	192	0
TAP	76	192	1
TAP	76	288	6
TAP	76	288	7
TAP	77	0	0
TAP	77	0	1
TAP	77	96	6
TAP	77	96	7
TAP	77	192	5
TAP	77	240	5
TAP	77	288	4
TAP	77	288	6
TAP	78	0	2
TAP	78	48	2
TAP	78	96	1
TAP	78	96	3
BRK	78	192	2
BRK	78	192	5

T_REC_TAP	240
T_REC_BRK	36
T_REC_XTP	0
T_REC_HLD	52
T_REC_XHO	0
T_REC_STR	15
T_REC_BST	0
T_REC_XST	0
T_REC_TTP	0
T_REC_THO	0
T_REC_SLD	15
T_REC_ALL	358
T_NUM_TAP	255
T_NUM_BRK	36
T_NUM_HLD	52
T_NUM_SLD	15
T_NUM_ALL	358
T_JUDGE_TAP	291
T_JUDGE_HLD	156
T_JUDGE_SLD	15
T_JUDGE_ALL	462
TTM_EACHPAIRS	117
TTM_SCR_TAP	127500
TTM_SCR_BRK	93600
TTM_SCR_HLD	52000
TTM_SCR_SLD	22500
TTM_SCR_ALL	295600
TTM_SCR_S	283250
TTM_SCR_SS	292000
TTM_RAT_ACV	10123

