VERSION	0.00.00	1.03.00
FES_MODE	0
BPM_DEF	200.000	200.000	200.000	200.000
MET_DEF	4	4
RESOLUTION	384
CLK_DEF	384
COMPATIBLE_CODE	MA2

BPM	0	0	200.000
MET	0	0	4	4
MET	45	0	4	5
MET	50	0	4	7
MET	56	192	4	4

TAP	1	0	4
TAP	1	192	4
TAP	2	0	4
TAP	3	0	3
TAP	3	192	3
TAP	4	0	3
TAP	5	0	4
TAP	5	192	4
TAP	6	0	4
TAP	6	0	5
TAP	7	0	6
TAP	7	192	6
TAP	8	0	6
TAP	8	0	7
TAP	9	0	0
TAP	9	192	0
TAP	10	0	0
TAP	10	0	1
TAP	11	0	2
TAP	11	192	2
BRK	12	0	2
BRK	12	0	3
HLD	13	0	2	192
TAP	14	0	2
TAP	14	192	2
TAP	14	192	3
TAP	15	0	4
TAP	15	192	4
TAP	16	0	4
TAP	16	0	5
HLD	17	0	6	192
TAP	18	0	6
TAP	18	192	6
TAP	18	192	7
TAP	19	0	0
TAP	19	192	0
TAP	20	0	0
TAP	20	0	1
TAP	21	0	2
TAP	21	192	2
TAP	22	0	3
TAP	22	96	3
TAP	22	192	3
TAP	23	0	4
TAP	23	192	4
TAP	24	0	5
TAP	24	96	5
TAP	24	192	5
TAP	25	0	6
TAP	25	192	6
TAP	26	0	7
TAP	26	96	7
TAP	26	192	7
TAP	27	0	0
TAP	27	192	0
TAP	28	0	1
TAP	28	96	1
TAP	28	192	1
HLD	29	0	2	384
HLD	31	0	3	384
HLD	33	0	4	384
HLD	35	0	5	384
TAP	37	0	6
TAP	37	192	7
TAP	38	0	0
TAP	38	192	1
TAP	39	0	0
TAP	39	0	1
TAP	39	192	6
TAP	39	192	7
TAP	40	0	0
TAP	40	0	7
TAP	40	96	0
TAP	40	96	7
TAP	40	192	1
TAP	40	192	6
TAP	41	0	2
TAP	41	192	3
TAP	42	0	4
TAP	42	192	5
TAP	43	0	4
TAP	43	0	5
TAP	43	192	2
TAP	43	192	3
TAP	44	0	3
TAP	44	0	4
TAP	44	96	3
TAP	44	96	4
TAP	44	192	2
TAP	44	192	5
STR	45	0	3
SI_	45	0	3	96	384	0
STR	47	192	7
SI_	47	192	7	96	384	4
TAP	50	0	5
TAP	51	0	4
TAP	51	288	3
TAP	53	0	2
TAP	53	192	1
TAP	54	192	0
BRK	55	96	0
BRK	55	96	7
TAP	56	192	0
TAP	57	0	7
HLD	57	192	0	192
HLD	57	192	7	192
TAP	58	192	7
TAP	59	0	7
TAP	59	192	6
TAP	59	288	6
TAP	60	0	6
TAP	60	192	5
TAP	61	0	5
TAP	61	192	4
TAP	61	288	4
TAP	62	0	4
TAP	62	192	3
TAP	63	0	3
TAP	63	192	2
TAP	63	288	2
TAP	64	0	2
STR	64	192	3
SI_	64	192	3	96	288	0
STR	64	192	4
SI_	64	192	4	96	288	7
TAP	66	192	0
TAP	66	192	1
TAP	66	288	0
TAP	66	288	1
TAP	67	0	0
TAP	67	0	1
TAP	67	192	0
TAP	67	192	7
TAP	67	288	0
TAP	67	288	7
TAP	68	0	0
TAP	68	0	7
TAP	68	192	6
TAP	68	192	7
TAP	68	288	6
TAP	68	288	7
TAP	69	0	6
TAP	69	0	7
TAP	69	192	0
TAP	69	192	7
TAP	69	288	0
TAP	69	288	7
TAP	70	0	1
TAP	70	0	6
TAP	70	192	4
TAP	70	192	5
TAP	70	288	4
TAP	70	288	5
TAP	71	0	4
TAP	71	0	5
TAP	71	192	3
TAP	71	192	4
TAP	71	288	3
TAP	71	288	4
TAP	72	0	3
TAP	72	0	4
TAP	72	192	2
TAP	72	192	3
TAP	72	288	2
TAP	72	288	3
TAP	73	0	2
TAP	73	0	3
TAP	73	192	3
TAP	73	192	4
TAP	73	288	3
TAP	73	288	4
TAP	74	0	2
TAP	74	0	5
TAP	74	192	1
TAP	74	288	1
TAP	75	0	1
TAP	75	192	0
TAP	75	288	0
TAP	76	0	0
TAP	76	192	7
TAP	76	288	7
TAP	77	0	7
TAP	77	192	6
TAP	77	288	6
TAP	78	0	6
BRK	78	192	0
BRK	78	192	7

T_REC_TAP	165
T_REC_BRK	6
T_REC_XTP	0
T_REC_HLD	8
T_REC_XHO	0
T_REC_STR	4
T_REC_BST	0
T_REC_XST	0
T_REC_TTP	0
T_REC_THO	0
T_REC_SLD	4
T_REC_ALL	187
T_NUM_TAP	169
T_NUM_BRK	6
T_NUM_HLD	8
T_NUM_SLD	4
T_NUM_ALL	187
T_JUDGE_TAP	175
T_JUDGE_HLD	48
T_JUDGE_SLD	4
T_JUDGE_ALL	227
TTM_EACHPAIRS	46
TTM_SCR_TAP	84500
TTM_SCR_BRK	15600
TTM_SCR_HLD	8000
TTM_SCR_SLD	6000
TTM_SCR_ALL	114100
TTM_SCR_S	110100
TTM_SCR_SS	113500
TTM_RAT_ACV	10052

