VERSION	0.00.00	1.03.00
FES_MODE	0
BPM_DEF	220.000	220.000	220.000	220.000
MET_DEF	4	4
RESOLUTION	384
CLK_DEF	384
COMPATIBLE_CODE	MA2

BPM	0	0	220.000

STR	2	120	0
SF_	2	120	0	96	264	4
TAP	3	192	4
TAP	3	192	6
TAP	3	240	5
TAP	3	336	5
HLD	4	0	4	48
HLD	4	0	5	48
HLD	4	96	4	48
HLD	4	96	5	48
TAP	4	192	4
TAP	4	192	5
HLD	4	336	0	96
HLD	4	336	1	96
STR	5	96	1
SSR	5	96	1	96	144	5
TAP	5	96	2
HLD	6	0	6	48
HLD	6	0	7	48
HLD	6	96	6	48
HLD	6	96	7	48
TAP	6	240	0
TAP	6	240	5
HLD	6	336	0	96
HLD	6	336	1	96
STR	7	96	0
SSL	7	96	0	96	144	4
HLD	7	96	7	96
HLD	8	0	2	48
HLD	8	0	3	48
HLD	8	96	2	48
HLD	8	96	3	48
TAP	8	192	2
TAP	8	192	3
HLD	8	336	6	96
HLD	8	336	7	96
TAP	9	96	5
STR	9	96	6
SSL	9	96	6	96	144	2
HLD	10	0	0	48
HLD	10	0	1	48
HLD	10	96	0	48
HLD	10	96	1	48
TAP	10	240	2
TAP	10	240	7
HLD	10	336	6	96
HLD	10	336	7	96
HLD	11	96	0	96
TAP	11	96	7
TAP	11	192	7
TAP	11	256	0
TAP	11	256	6
TAP	11	320	1
TAP	11	320	5
TAP	12	0	2
HLD	12	0	4	96
TAP	12	96	6
HLD	12	192	3	96
TAP	12	288	1
STR	13	0	4
SI_	13	0	4	96	48	7
STR	13	96	3
SI_	13	96	3	96	48	0
TAP	13	192	6
BRK	13	288	6
HLD	14	0	3	96
TAP	14	96	1
HLD	14	192	4	96
TAP	14	288	6
STR	15	0	3
SCL	15	0	3	96	48	0
STR	15	96	4
SCR	15	96	4	96	48	7
TAP	15	192	1
BRK	15	288	1
HLD	16	0	7	96
TAP	16	96	5
STR	16	192	3
SI_	16	192	3	96	48	5
STR	16	192	5
SI_	16	192	5	96	48	3
STR	17	0	6
SI_	17	0	6	96	48	3
STR	17	96	7
SI_	17	96	7	96	48	3
STR	17	192	0
SI_	17	192	0	96	48	3
TAP	17	288	1
HLD	18	0	5	96
HLD	18	96	6	96
HLD	18	192	7	96
TAP	18	288	0
TAP	19	0	1
TAP	19	48	0
TAP	19	96	7
TAP	19	144	6
TAP	19	192	5
BRK	19	288	0
TAP	20	0	1
STR	20	0	3
SI_	20	0	3	96	48	6
STR	20	96	2
SCL	20	96	2	96	96	6
TAP	20	192	5
STR	21	0	4
SI_	21	0	4	96	48	1
TAP	21	0	6
STR	21	96	5
SCR	21	96	5	96	96	1
TAP	21	192	2
BRK	22	0	0
BRK	22	48	1
BST	22	96	2
SCL	22	96	2	96	96	7
BRK	22	144	3
BRK	22	192	4
BRK	23	0	0
BRK	23	48	1
BST	23	96	2
SI_	23	96	2	96	48	7
BRK	23	144	3
BRK	23	192	4
TAP	24	0	6
STR	24	96	7
SUL	24	96	7	96	96	2
TAP	24	192	0
TAP	24	288	1
STR	25	0	2
SI_	25	0	2	96	144	5
STR	25	0	6
SI_	25	0	6	96	144	1
STR	26	0	7
SI_	26	0	7	96	48	4
STR	26	96	0
SI_	26	96	0	96	48	4
STR	26	192	1
SI_	26	192	1	96	48	4
TAP	26	288	2
STR	27	0	1
SI_	27	0	1	96	96	5
STR	27	0	7
SI_	27	0	7	96	96	3
BRK	27	288	0
BRK	27	288	2
STR	28	0	2
SI_	28	0	2	96	48	6
STR	28	96	5
SI_	28	96	5	96	48	1
HLD	28	192	2	96
TAP	28	288	0
STR	29	0	7
SI_	29	0	7	96	48	3
TAP	29	96	3
HLD	29	192	1	96
HLD	29	192	5	96
STR	30	0	6
SI_	30	0	6	96	48	2
TAP	30	96	1
STR	30	192	0
SI_	30	192	0	96	48	3
STR	30	192	7
SI_	30	192	7	96	48	4
STR	31	0	2
SCR	31	0	2	96	48	5
TAP	31	96	6
BRK	31	192	0
BRK	31	192	7
STR	32	0	0
SI_	32	0	0	96	48	4
STR	32	0	1
SI_	32	0	1	96	48	3
STR	32	192	6
SI_	32	192	6	96	48	4
STR	32	288	7
SI_	32	288	7	96	48	3
STR	33	0	5
SI_	33	0	5	96	48	1
TAP	33	96	0
STR	33	192	0
SI_	33	192	0	96	48	4
STR	33	192	3
SI_	33	192	3	96	48	6
STR	34	0	5
SI_	34	0	5	96	48	2
STR	34	96	2
SI_	34	96	2	96	96	5
SUL	34	96	2	96	96	6
STR	35	0	2
SXR	35	0	2	96	192	4
STR	35	0	5
SXL	35	0	5	96	192	3
TAP	36	0	5
STR	36	0	7
SI_	36	0	7	96	48	2
TAP	36	96	3
TAP	36	192	3
STR	36	192	4
SI_	36	192	4	96	48	7
TAP	36	288	0
STR	37	0	1
SXR	37	0	1	96	144	6
TAP	37	0	2
TAP	37	96	3
TAP	37	192	4
TAP	37	288	0
TAP	37	288	5
TAP	37	336	1
TAP	38	0	2
STR	38	0	7
SI_	38	0	7	96	48	2
TAP	38	96	3
TAP	38	192	3
TAP	38	192	4
STR	38	288	1
SI_	38	288	1	96	72	6
STR	38	288	2
SI_	38	288	2	96	72	5
TAP	39	192	1
TAP	39	192	7
TAP	39	240	6
TAP	39	288	5
TAP	39	288	7
TAP	39	336	0
STR	40	0	1
SI_	40	0	1	96	48	3
STR	40	0	7
SI_	40	0	7	96	48	5
HLD	40	192	2	48
HLD	40	192	6	48
STR	40	288	1
SUL	40	288	1	96	72	5
STR	40	288	2
SI_	40	288	2	96	72	5
TAP	41	192	6
TAP	41	216	7
TAP	41	240	6
TAP	41	264	7
TAP	41	288	6
TAP	41	312	7
TAP	41	336	6
TAP	41	360	7
STR	42	0	6
SI_	42	0	6	96	48	3
TAP	42	96	0
STR	42	192	2
SCR	42	192	2	96	48	5
TAP	42	288	6
STR	43	0	7
SI_	43	0	7	96	48	2
TAP	43	96	3
TAP	43	192	4
TAP	43	192	5
BRK	43	288	2
BRK	43	288	7
TAP	44	0	5
HLD	44	48	5	96
TAP	44	144	4
TAP	44	192	4
HLD	44	288	2	96
TAP	44	288	4
TAP	45	0	3
TAP	45	96	1
TAP	45	96	4
HLD	45	192	2	96
TAP	45	192	3
TAP	45	288	1
TAP	46	0	2
HLD	46	48	2	96
TAP	46	144	3
TAP	46	192	3
TAP	46	288	3
HLD	46	288	5	96
TAP	47	0	4
TAP	47	96	3
TAP	47	96	6
TAP	47	192	4
HLD	47	192	5	96
TAP	47	288	6
HLD	48	0	1	96
STR	48	96	2
SCL	48	96	2	96	96	7
TAP	48	192	3
HLD	49	0	6	96
STR	49	96	5
SCR	49	96	5	96	96	0
TAP	49	192	4
HLD	50	0	2	96
TAP	50	0	4
TAP	50	96	3
TAP	50	192	3
HLD	50	192	5	96
TAP	50	288	4
TAP	51	0	2
TAP	51	0	3
TAP	51	64	2
TAP	51	64	3
TAP	51	128	2
TAP	51	128	3
TAP	51	192	4
TAP	51	192	5
TAP	51	256	4
TAP	51	256	5
TAP	51	320	4
TAP	51	320	5
BST	52	0	3
SI_	52	0	3	96	72	1
TAP	52	0	6
BST	52	192	3
SI_	52	192	3	96	72	5
TAP	53	0	0
STR	53	96	1
SUL	53	96	1	96	144	5
STR	53	96	2
SI_	53	96	2	96	144	5
BST	54	0	7
SI_	54	0	7	96	72	5
BST	54	192	7
SI_	54	192	7	96	72	1
STR	55	0	4
SXL	55	0	4	96	192	4
SXR	55	0	4	96	192	4
BST	56	0	3
SI_	56	0	3	96	72	1
BST	56	192	3
SI_	56	192	3	96	72	5
HLD	57	0	2	96
HLD	57	96	3	96
HLD	57	192	4	96
STR	57	288	5
SCR	57	288	5	96	288	2
TAP	59	0	3
TAP	59	0	4
TAP	59	64	3
TAP	59	64	4
TAP	59	128	3
TAP	59	128	4
STR	59	192	3
SI_	59	192	3	96	48	0
TAP	59	192	4
TAP	59	288	7
STR	60	0	7
SLL	60	0	7	96	96	0
STR	60	96	0
SLR	60	96	0	96	96	4
STR	60	192	4
SLR	60	192	4	96	96	2
TAP	60	288	1
STR	61	0	1
SLR	61	0	1	96	96	5
TAP	61	96	7
TAP	61	192	0
BRK	61	288	2
BRK	61	288	6
STR	62	0	0
SLR	62	0	0	96	96	7
STR	62	96	7
SLL	62	96	7	96	96	3
STR	62	192	3
SLL	62	192	3	96	96	5
TAP	62	288	6
STR	63	0	6
SI_	63	0	6	96	48	2
TAP	63	96	0
STR	63	192	1
SI_	63	192	1	96	48	3
STR	63	192	7
SI_	63	192	7	96	48	5
STR	64	0	0
SLR	64	0	0	96	96	7
STR	64	96	7
SLL	64	96	7	96	96	3
STR	64	192	3
SLL	64	192	3	96	96	5
TAP	64	288	6
STR	65	0	6
SLL	65	0	6	96	96	2
TAP	65	96	0
TAP	65	192	7
BRK	65	288	1
BRK	65	288	5
STR	66	0	7
SLL	66	0	7	96	96	0
STR	66	96	0
SLR	66	96	0	96	96	4
STR	66	192	4
SLR	66	192	4	96	96	2
TAP	66	288	1
TAP	67	0	0
TAP	67	64	0
TAP	67	64	7
TAP	67	128	6
TAP	67	128	7
TAP	67	192	5
TAP	67	256	3
TAP	67	256	4
TAP	67	320	2
TAP	67	320	3
HLD	68	0	1	96
TAP	68	96	3
HLD	68	192	6	96
TAP	68	288	4
HLD	69	0	0	48
HLD	69	0	7	48
HLD	69	96	0	48
HLD	69	96	7	48
HLD	69	192	3	48
HLD	69	192	4	48
HLD	69	288	3	48
HLD	69	288	4	48
TAP	70	0	4
TAP	70	96	4
TAP	70	96	6
TAP	70	192	3
STR	70	288	1
SI_	70	288	1	96	48	6
TAP	70	288	3
STR	71	0	5
SI_	71	0	5	96	48	2
STR	71	96	1
SI_	71	96	1	96	48	6
STR	71	192	5
SI_	71	192	5	96	48	2
TAP	71	288	1
HLD	72	0	0	96
TAP	72	96	2
STR	72	192	2
SI_	72	192	2	96	48	4
STR	72	192	4
SI_	72	192	4	96	48	2
STR	73	0	1
SI_	73	0	1	96	48	4
STR	73	96	0
SI_	73	96	0	96	48	4
STR	73	192	7
SI_	73	192	7	96	48	4
TAP	73	288	6
HLD	74	0	2	96
HLD	74	96	1	96
HLD	74	192	0	96
TAP	74	288	7
TAP	75	0	6
TAP	75	48	7
TAP	75	96	0
TAP	75	144	1
TAP	75	192	2
BRK	75	288	0
BRK	75	288	7
BRK	76	0	0
BRK	76	48	7
BRK	76	96	1
BRK	76	144	6
BRK	76	192	2
BRK	76	240	5
BRK	76	288	3
BRK	76	336	4
STR	77	0	2
SI_	77	0	2	96	48	5
STR	77	96	6
SI_	77	96	6	96	48	1
STR	77	192	2
SI_	77	192	2	96	48	5
TAP	77	288	6
BRK	78	0	7
BRK	78	48	6
BST	78	96	5
SCR	78	96	5	96	96	0
BRK	78	144	4
BRK	78	192	3
BRK	79	0	7
BRK	79	48	6
BST	79	96	5
SI_	79	96	5	96	48	0
BRK	79	144	4
BRK	79	192	3
TAP	80	0	6
STR	80	96	7
SUL	80	96	7	96	96	2
TAP	80	192	0
TAP	80	288	1
STR	81	0	2
SI_	81	0	2	96	144	5
STR	81	0	6
SI_	81	0	6	96	144	1
STR	82	0	5
SCL	82	0	5	96	48	2
STR	82	96	1
SI_	82	96	1	96	48	5
STR	82	192	6
SCR	82	192	6	96	48	1
TAP	82	288	2
STR	83	0	0
SI_	83	0	0	96	96	4
STR	83	0	6
SI_	83	0	6	96	96	2
BRK	83	288	5
BRK	83	288	7
STR	84	0	5
SI_	84	0	5	96	48	1
STR	84	96	2
SI_	84	96	2	96	48	6
HLD	84	192	5	96
TAP	84	288	7
STR	85	0	0
SI_	85	0	0	96	48	4
TAP	85	96	4
HLD	85	192	2	96
HLD	85	192	6	96
STR	86	0	2
SI_	86	0	2	96	48	6
STR	86	96	4
SI_	86	96	4	96	48	0
STR	86	192	3
SI_	86	192	3	96	48	7
STR	86	288	5
SI_	86	288	5	96	48	1
STR	87	0	2
SCR	87	0	2	96	48	5
TAP	87	96	6
BRK	87	192	0
BRK	87	192	7
STR	88	0	6
SI_	88	0	6	96	48	4
STR	88	0	7
SI_	88	0	7	96	48	3
STR	88	192	1
SI_	88	192	1	96	48	3
STR	88	288	0
SI_	88	288	0	96	48	4
STR	89	0	2
SI_	89	0	2	96	48	6
TAP	89	96	7
STR	89	192	4
SI_	89	192	4	96	48	1
STR	89	192	7
SI_	89	192	7	96	48	3
STR	90	0	2
SI_	90	0	2	96	48	5
STR	90	96	5
SI_	90	96	5	96	96	2
SUR	90	96	5	96	96	1
STR	91	0	2
SXR	91	0	2	96	192	4
STR	91	0	5
SXL	91	0	5	96	192	3
STR	92	0	0
SCL	92	0	0	96	48	5
TAP	92	0	2
TAP	92	96	4
STR	92	192	3
SCL	92	192	3	96	48	0
TAP	92	192	4
TAP	92	288	7
TAP	93	0	5
STR	93	0	6
SXL	93	0	6	96	144	1
TAP	93	96	4
TAP	93	192	3
TAP	93	288	2
TAP	93	288	7
TAP	93	336	6
STR	94	0	0
SCL	94	0	0	96	48	5
TAP	94	0	5
TAP	94	96	4
TAP	94	192	3
TAP	94	192	4
STR	94	288	5
SCL	94	288	5	96	72	2
STR	94	288	6
SCR	94	288	6	96	72	1
TAP	95	192	0
TAP	95	192	6
TAP	95	240	1
TAP	95	288	0
TAP	95	288	2
TAP	95	336	7
STR	96	0	0
SI_	96	0	0	96	48	2
STR	96	0	6
SI_	96	0	6	96	48	4
HLD	96	192	1	48
HLD	96	192	5	48
STR	96	288	5
SI_	96	288	5	96	72	2
STR	96	288	6
SUR	96	288	6	96	72	2
TAP	97	192	1
TAP	97	216	0
TAP	97	240	1
TAP	97	264	0
TAP	97	288	2
TAP	97	312	7
TAP	97	336	2
TAP	97	360	7
STR	98	0	2
SCR	98	0	2	96	48	5
TAP	98	96	7
STR	98	192	6
SCR	98	192	6	96	48	1
TAP	98	288	2
STR	99	0	2
SI_	99	0	2	96	48	7
TAP	99	96	6
TAP	99	192	1
TAP	99	192	4
BRK	99	288	6
BRK	99	288	7
TAP	100	0	5
TAP	100	48	4
TAP	100	48	5
TAP	100	144	2
TAP	100	192	3
HLD	100	240	1	144
TAP	100	240	4
TAP	101	0	0
TAP	101	96	2
TAP	101	96	3
TAP	101	144	2
TAP	101	144	3
TAP	101	240	1
TAP	101	240	4
TAP	101	336	2
TAP	101	336	3
HLD	102	0	2	96
TAP	102	96	5
TAP	102	192	3
TAP	102	192	6
TAP	102	240	4
TAP	102	240	5
TAP	103	0	6
TAP	103	48	4
TAP	103	48	6
TAP	103	144	4
TAP	103	192	4
TAP	103	192	5
TAP	103	288	3
TAP	103	288	6
TAP	104	0	2
TAP	104	48	2
TAP	104	48	3
TAP	104	144	5
TAP	104	192	4
TAP	104	240	3
HLD	104	240	6	144
TAP	105	0	7
TAP	105	96	4
TAP	105	96	5
TAP	105	144	4
TAP	105	144	5
TAP	105	240	3
TAP	105	240	6
TAP	105	336	4
TAP	105	336	5
HLD	106	0	5	96
TAP	106	96	2
TAP	106	192	1
TAP	106	192	4
TAP	106	240	2
TAP	106	240	3
TAP	107	0	4
TAP	107	0	5
TAP	107	64	4
TAP	107	64	5
TAP	107	128	4
TAP	107	128	5
TAP	107	192	2
TAP	107	192	3
TAP	107	256	2
TAP	107	256	3
STR	107	320	2
SXR	107	320	2	96	256	6
SLR	107	320	2	96	256	6
TAP	107	320	3
TAP	109	0	6
TAP	109	96	4
TAP	109	96	5
TAP	109	144	4
TAP	109	144	5
TAP	109	240	3
TAP	109	240	6
TAP	109	336	4
TAP	109	336	5
HLD	110	0	5	96
TAP	110	96	2
TAP	110	192	2
TAP	110	192	5
TAP	110	240	3
TAP	110	240	4
TAP	111	0	2
TAP	111	48	2
TAP	111	48	4
TAP	111	144	4
TAP	111	192	3
TAP	111	192	4
TAP	111	288	2
TAP	111	288	5
TAP	112	0	1
HLD	112	48	1	96
TAP	112	144	7
TAP	112	176	7
TAP	112	224	0
STR	112	312	1
SSL	112	312	1	96	232	5
STR	112	312	6
SSR	112	312	6	96	232	2
STR	114	0	2
SI_	114	0	2	96	240	5
STR	114	0	6
SI_	114	0	6	96	240	1
TAP	115	0	3
TAP	115	0	4
TAP	115	64	3
TAP	115	64	4
TAP	115	128	3
TAP	115	128	4
STR	115	192	4
SI_	115	192	4	96	48	7
TAP	115	288	0
STR	116	0	0
SLR	116	0	0	96	96	7
STR	116	96	7
SLL	116	96	7	96	96	3
STR	116	192	3
SLL	116	192	3	96	96	5
TAP	116	288	6
STR	117	0	6
SLL	117	0	6	96	96	2
TAP	117	96	0
TAP	117	192	7
BRK	117	288	1
BRK	117	288	5
STR	118	0	7
SLL	118	0	7	96	96	0
STR	118	96	0
SLR	118	96	0	96	96	4
STR	118	192	4
SLR	118	192	4	96	96	2
TAP	118	288	1
STR	119	0	3
SI_	119	0	3	96	48	6
TAP	119	96	7
STR	119	192	0
SI_	119	192	0	96	48	5
STR	119	192	1
SI_	119	192	1	96	48	4
STR	120	0	7
SLL	120	0	7	96	96	0
STR	120	96	0
SLR	120	96	0	96	96	4
STR	120	192	4
SLR	120	192	4	96	96	2
TAP	120	288	1
STR	121	0	1
SLR	121	0	1	96	96	5
TAP	121	96	7
TAP	121	192	0
BRK	121	288	2
BRK	121	288	6
STR	122	0	0
SLR	122	0	0	96	96	7
STR	122	96	7
SLL	122	96	7	96	96	3
STR	122	192	3
SLL	122	192	3	96	96	5
TAP	122	288	6
TAP	123	0	6
HLD	123	48	6	96
HLD	123	48	7	96
TAP	123	192	0
TAP	123	192	5
HLD	123	240	0	96
HLD	123	240	5	96
STR	124	0	1
SCR	124	0	1	96	288	6
TAP	124	0	4
TAP	125	96	0
TAP	125	96	7
HLD	125	192	0	48
HLD	125	192	7	48
TAP	125	288	0
TAP	125	288	7
STR	126	0	2
SLL	126	0	2	96	96	6
TAP	126	0	4
STR	126	96	6
SLL	126	96	6	96	96	2
TAP	126	192	2
TAP	126	288	6
TAP	127	0	0
STR	127	0	5
SLL	127	0	5	96	144	7
TAP	127	96	3
TAP	127	192	0
BRK	127	288	1
BRK	127	288	5
TAP	128	0	3
STR	128	0	5
SLR	128	0	5	96	96	1
STR	128	96	1
SLR	128	96	1	96	96	5
TAP	128	192	5
TAP	128	288	1
STR	129	0	5
SI_	129	0	5	96	48	2
STR	129	96	2
SI_	129	96	2	96	96	5
SUL	129	96	2	96	96	6
STR	130	0	5
SLR	130	0	5	96	96	1
STR	130	96	1
SLR	130	96	1	96	96	5
TAP	130	192	5
TAP	130	288	1
STR	131	0	2
SLR	131	0	2	96	144	0
TAP	131	0	7
TAP	131	96	4
TAP	131	192	7
BRK	131	288	2
BRK	131	288	6
STR	132	0	2
SLL	132	0	2	96	96	6
TAP	132	0	4
STR	132	96	6
SLL	132	96	6	96	96	2
TAP	132	192	2
TAP	132	288	6
TAP	133	0	5
TAP	133	64	3
TAP	133	64	4
TAP	133	128	2
TAP	133	128	3
TAP	133	192	1
TAP	133	256	0
TAP	133	256	7
TAP	133	320	6
TAP	133	320	7
TAP	134	0	0
STR	134	0	5
SUR	134	0	5	96	96	2
HLD	134	288	3	64
HLD	134	288	4	64
BRK	135	0	3
BRK	135	0	4

T_REC_TAP	341
T_REC_BRK	55
T_REC_XTP	0
T_REC_HLD	85
T_REC_XHO	0
T_REC_STR	169
T_REC_BST	10
T_REC_XST	0
T_REC_TTP	0
T_REC_THO	0
T_REC_SLD	184
T_REC_ALL	844
T_NUM_TAP	510
T_NUM_BRK	65
T_NUM_HLD	85
T_NUM_SLD	184
T_NUM_ALL	844
T_JUDGE_TAP	575
T_JUDGE_HLD	142
T_JUDGE_SLD	184
T_JUDGE_ALL	901
TTM_EACHPAIRS	170
TTM_SCR_TAP	255000
TTM_SCR_BRK	169000
TTM_SCR_HLD	85000
TTM_SCR_SLD	276000
TTM_SCR_ALL	785000
TTM_SCR_S	755150
TTM_SCR_SS	778500
TTM_RAT_ACV	10083

