VERSION	0.00.00	1.03.00
FES_MODE	0
BPM_DEF	220.000	220.000	220.000	220.000
MET_DEF	4	4
RESOLUTION	384
CLK_DEF	384
COMPATIBLE_CODE	MA2

BPM	0	0	220.000
MET	0	0	4	4

TAP	4	0	3
TAP	4	0	4
TAP	4	96	3
TAP	4	96	4
HLD	4	192	3	144
HLD	4	192	5	288
TAP	5	192	3
TAP	6	0	3
TAP	6	0	4
TAP	6	96	3
TAP	6	96	4
HLD	6	240	2	240
HLD	6	240	5	96
TAP	7	192	4
TAP	7	240	4
TAP	8	0	3
TAP	8	0	4
TAP	8	96	3
TAP	8	96	4
HLD	8	192	2	288
HLD	8	192	4	144
TAP	9	192	3
TAP	10	0	3
TAP	10	0	4
TAP	10	96	3
TAP	10	96	4
HLD	10	240	2	96
HLD	10	240	5	240
TAP	11	192	3
TAP	11	192	4
TAP	12	0	7
TAP	12	96	6
TAP	12	192	5
TAP	12	288	4
TAP	13	0	2
TAP	13	0	3
TAP	13	96	1
TAP	13	96	2
TAP	13	192	0
TAP	13	288	0
TAP	14	0	0
TAP	14	0	7
TAP	14	96	1
TAP	14	96	2
TAP	14	192	3
TAP	14	192	4
TAP	14	288	5
TAP	14	288	6
TAP	15	0	0
TAP	15	0	7
TAP	15	96	1
TAP	15	96	6
TAP	15	192	0
TAP	15	288	0
STR	16	0	1
SLL	16	0	1	96	192	4
HLD	16	0	6	672
TAP	17	0	2
TAP	17	96	2
TAP	17	192	1
TAP	17	288	1
TAP	18	0	4
TAP	18	0	5
TAP	18	96	3
TAP	18	96	4
TAP	18	192	2
TAP	18	192	3
TAP	18	288	3
TAP	18	288	4
TAP	19	0	4
TAP	19	0	5
TAP	19	96	3
TAP	19	96	4
TAP	19	192	2
HLD	19	192	3	96
TAP	19	288	1
TAP	20	0	0
STR	20	96	0
SCR	20	96	0	96	96	3
STR	20	96	7
SUR	20	96	7	96	96	4
TAP	21	0	7
STR	21	96	0
SUL	21	96	0	96	96	3
STR	21	96	7
SCL	21	96	7	96	96	4
TAP	22	0	3
TAP	22	0	4
TAP	22	96	1
TAP	22	96	3
TAP	22	192	0
TAP	22	192	7
TAP	22	288	4
TAP	22	288	6
TAP	23	0	3
TAP	23	0	4
TAP	23	96	1
TAP	23	96	3
TAP	23	192	0
TAP	23	192	7
TAP	24	0	3
TAP	24	0	7
TAP	24	96	0
TAP	24	96	4
TAP	24	192	1
TAP	24	192	5
STR	24	288	2
SI_	24	288	2	96	192	5
STR	24	288	6
SI_	24	288	6	96	192	1
TAP	26	0	2
HLD	26	48	2	48
TAP	26	96	4
HLD	26	144	4	48
TAP	26	192	1
HLD	26	240	1	48
TAP	26	288	5
HLD	26	336	5	48
TAP	27	0	0
HLD	27	48	0	48
TAP	27	96	6
HLD	27	144	6	48
TAP	27	192	7
BRK	27	288	0
TAP	28	0	4
HLD	28	0	5	96
TAP	28	48	4
TAP	28	96	4
HLD	28	192	2	96
TAP	28	192	3
TAP	28	240	3
TAP	28	288	3
TAP	29	0	4
TAP	29	0	5
TAP	29	96	2
TAP	29	96	3
TAP	29	192	2
TAP	29	192	5
TAP	29	288	6
STR	30	0	0
SI_	30	0	0	96	96	3
TAP	30	0	7
STR	30	192	4
SI_	30	192	4	96	96	7
STR	31	0	0
SCR	31	0	0	96	96	3
TAP	31	48	0
STR	31	192	4
SCR	31	192	4	96	96	7
TAP	31	240	4
TAP	32	0	0
TAP	32	48	0
TAP	32	96	1
TAP	32	96	3
TAP	32	192	0
TAP	32	240	0
TAP	32	288	1
TAP	32	288	3
TAP	33	0	7
TAP	33	48	7
TAP	33	96	4
TAP	33	96	6
TAP	33	192	7
TAP	33	240	7
TAP	33	288	4
TAP	33	288	6
TAP	34	0	0
TAP	34	48	0
TAP	34	96	1
TAP	34	96	3
TAP	34	192	7
TAP	34	240	7
TAP	34	288	4
TAP	34	288	6
TAP	35	0	7
STR	35	96	3
SF_	35	96	3	96	96	7
TAP	36	0	7
TAP	36	48	7
TAP	36	96	3
TAP	36	144	3
TAP	36	192	5
TAP	36	240	5
TAP	36	288	1
TAP	36	336	1
TAP	37	0	3
TAP	37	48	3
TAP	37	96	0
TAP	37	144	0
TAP	37	192	4
TAP	37	240	1
HLD	37	288	6	96
TAP	38	0	0
TAP	38	48	0
TAP	38	96	4
TAP	38	144	4
TAP	38	192	2
TAP	38	240	2
TAP	38	288	6
TAP	38	336	6
TAP	39	0	4
TAP	39	48	4
TAP	39	96	7
TAP	39	144	7
TAP	39	192	3
TAP	39	240	6
HLD	39	288	1	96
TAP	40	0	7
TAP	40	48	7
TAP	40	96	3
TAP	40	144	3
TAP	40	192	5
TAP	40	240	5
TAP	40	288	1
TAP	40	336	1
TAP	41	0	3
TAP	41	48	3
TAP	41	96	0
TAP	41	144	0
TAP	41	192	4
TAP	41	240	4
TAP	41	288	4
TAP	41	336	4
TAP	42	0	1
TAP	42	48	1
STR	42	96	5
SI_	42	96	5	96	48	7
TAP	42	192	0
BRK	42	288	0
TAP	43	0	6
TAP	43	48	6
STR	43	96	2
SI_	43	96	2	96	48	0
TAP	43	192	7
BRK	43	288	7
TAP	44	0	6
HLD	44	48	6	240
TAP	44	192	4
HLD	44	240	4	48
TAP	45	0	3
TAP	45	0	4
STR	45	96	2
SV_	45	96	2	96	96	7
STR	45	96	5
SI_	45	96	5	96	48	3
TAP	46	0	1
HLD	46	48	1	240
TAP	46	192	3
HLD	46	240	3	48
TAP	47	0	3
TAP	47	0	4
STR	47	96	2
SI_	47	96	2	96	48	0
STR	47	96	5
SV_	47	96	5	96	96	3
TAP	48	0	6
HLD	48	48	6	240
TAP	48	192	4
HLD	48	240	4	48
TAP	49	0	3
STR	49	0	4
SI_	49	0	4	96	96	6
SUL	49	0	4	96	192	3
HLD	50	0	2	96
TAP	50	0	3
TAP	50	96	3
HLD	50	192	4	96
TAP	50	192	5
STR	50	288	5
SCR	50	288	5	96	192	2
TAP	51	192	5
TAP	52	0	6
HLD	52	48	6	288
TAP	52	192	2
HLD	52	240	2	96
TAP	53	0	2
TAP	53	0	6
STR	53	96	2
SI_	53	96	2	96	96	5
STR	53	96	6
SI_	53	96	6	96	96	1
TAP	54	0	1
HLD	54	48	1	288
TAP	54	192	5
HLD	54	240	5	96
TAP	55	0	1
TAP	55	0	5
STR	55	96	1
SI_	55	96	1	96	96	6
STR	55	96	5
SI_	55	96	5	96	96	2
TAP	56	0	6
HLD	56	48	6	288
TAP	56	192	2
HLD	56	240	2	96
TAP	57	0	2
TAP	57	0	6
STR	57	96	2
SCL	57	96	2	96	96	7
STR	57	96	6
SCL	57	96	6	96	96	3
TAP	58	0	1
HLD	58	48	1	288
TAP	58	192	5
HLD	58	240	5	96
TAP	59	0	1
TAP	59	0	5
TAP	59	72	1
TAP	59	72	5
TAP	59	144	1
TAP	59	144	5
TAP	59	192	2
TAP	59	192	6
TAP	60	0	7
HLD	60	48	7	48
TAP	60	96	6
HLD	60	144	6	48
TAP	60	192	5
HLD	60	240	5	48
TAP	60	288	4
TAP	61	0	3
TAP	61	0	5
TAP	61	48	2
TAP	61	96	3
TAP	61	96	5
TAP	61	144	6
TAP	61	192	3
TAP	61	192	5
TAP	61	240	2
TAP	61	288	3
TAP	61	288	5
TAP	62	0	0
HLD	62	48	0	48
TAP	62	96	1
HLD	62	144	1	48
TAP	62	192	2
HLD	62	240	2	48
TAP	62	288	3
TAP	63	0	2
TAP	63	0	4
TAP	63	48	5
TAP	63	96	2
TAP	63	96	4
TAP	63	144	1
TAP	63	192	2
TAP	63	192	4
TAP	63	240	5
TAP	63	288	2
TAP	63	288	4
TAP	64	0	7
HLD	64	48	7	48
TAP	64	96	6
HLD	64	144	6	48
TAP	64	192	5
HLD	64	240	5	48
TAP	64	288	4
TAP	65	0	3
TAP	65	0	5
TAP	65	48	2
TAP	65	96	3
TAP	65	96	5
TAP	65	144	6
TAP	65	192	3
TAP	65	192	5
TAP	65	240	2
TAP	65	288	3
TAP	65	288	5
TAP	66	0	0
HLD	66	48	0	48
TAP	66	96	1
HLD	66	144	1	48
TAP	66	192	2
HLD	66	240	2	48
TAP	66	288	3
TAP	67	0	3
TAP	67	0	4
TAP	67	64	2
TAP	67	64	5
TAP	67	128	1
TAP	67	128	6
TAP	67	192	2
TAP	67	192	5
TAP	67	256	1
TAP	67	256	6
TAP	67	320	0
TAP	67	320	7
HLD	68	0	0	96
HLD	68	0	7	96
HLD	68	192	3	96
HLD	68	192	4	96
TAP	69	0	0
TAP	69	0	7
TAP	69	96	0
TAP	69	96	7
TAP	69	192	3
TAP	69	192	4
TAP	69	288	3
TAP	69	288	4
HLD	70	0	3	672
TAP	70	0	6
TAP	70	96	6
TAP	70	192	1
TAP	70	288	1
BRK	71	0	6
BRK	71	96	1
BRK	71	192	6
BRK	71	288	1
HLD	72	0	1	672
STR	72	0	6
SLR	72	0	6	96	192	3
TAP	73	0	4
TAP	73	96	5
TAP	73	192	6
TAP	73	288	6
TAP	74	0	2
TAP	74	0	3
TAP	74	96	3
TAP	74	96	4
TAP	74	192	4
TAP	74	192	5
TAP	74	288	3
TAP	74	288	4
TAP	75	0	2
TAP	75	0	3
TAP	75	96	3
TAP	75	96	4
HLD	75	192	4	96
TAP	75	192	5
TAP	75	288	7
BRK	76	0	7
BRK	76	96	6
BRK	76	192	5
BRK	76	288	4
STR	77	0	3
SCL	77	0	3	96	192	0
TAP	78	0	3
TAP	78	0	4
TAP	78	96	4
TAP	78	96	6
TAP	78	192	0
TAP	78	192	7
TAP	78	288	1
TAP	78	288	3
TAP	79	0	3
TAP	79	0	4
TAP	79	96	4
TAP	79	96	6
TAP	79	192	0
TAP	79	192	7
TAP	80	0	0
TAP	80	0	4
TAP	80	96	3
TAP	80	96	7
TAP	80	192	2
TAP	80	192	6
STR	80	288	1
SI_	80	288	1	96	192	6
STR	80	288	5
SI_	80	288	5	96	192	2
STR	82	0	5
SCR	82	0	5	96	96	0
STR	82	192	4
SUR	82	192	4	96	96	1
STR	83	0	3
SF_	83	0	3	96	96	7
BRK	83	288	0
HLD	84	0	2	96
TAP	84	0	3
TAP	84	48	3
TAP	84	96	3
TAP	84	192	4
HLD	84	192	5	96
TAP	84	240	4
TAP	84	288	4
TAP	85	0	2
TAP	85	0	3
TAP	85	96	4
TAP	85	96	5
TAP	85	192	2
TAP	85	192	5
TAP	85	240	1
TAP	85	288	1
TAP	86	0	0
STR	86	0	7
SI_	86	0	7	96	96	4
STR	86	192	3
SI_	86	192	3	96	96	0
STR	87	0	7
SCL	87	0	7	96	96	4
TAP	87	48	7
STR	87	192	3
SCL	87	192	3	96	96	0
TAP	87	240	3
TAP	88	0	7
TAP	88	48	7
TAP	88	96	4
TAP	88	96	6
TAP	88	144	7
TAP	88	192	7
TAP	88	240	7
TAP	88	288	4
TAP	88	288	6
TAP	89	0	0
TAP	89	48	0
TAP	89	96	1
TAP	89	96	3
TAP	89	144	0
TAP	89	192	0
TAP	89	240	0
TAP	89	288	1
TAP	89	288	3
TAP	90	0	7
TAP	90	48	7
TAP	90	96	4
TAP	90	96	6
TAP	90	144	7
TAP	90	192	0
TAP	90	240	0
TAP	90	288	1
TAP	90	288	3
TAP	90	336	0
TAP	91	0	7
STR	91	96	4
SF_	91	96	4	96	96	0
TAP	92	0	0
TAP	92	48	0
TAP	92	96	4
TAP	92	144	4
TAP	92	192	2
TAP	92	240	2
TAP	92	288	6
TAP	92	336	6
TAP	93	0	4
TAP	93	48	4
TAP	93	96	7
TAP	93	144	7
TAP	93	192	3
TAP	93	240	6
HLD	93	288	0	96
TAP	94	0	7
TAP	94	48	7
TAP	94	96	3
TAP	94	144	3
TAP	94	192	5
TAP	94	240	5
TAP	94	288	1
TAP	94	336	1
TAP	95	0	3
TAP	95	48	3
TAP	95	96	0
TAP	95	144	0
TAP	95	192	4
TAP	95	240	1
HLD	95	288	7	96
TAP	96	0	0
TAP	96	48	0
TAP	96	96	4
TAP	96	144	4
TAP	96	192	2
TAP	96	240	2
TAP	96	288	6
TAP	96	336	6
TAP	97	0	4
TAP	97	48	4
TAP	97	96	7
TAP	97	144	7
TAP	97	192	3
TAP	97	240	3
TAP	97	288	3
TAP	97	336	3
TAP	98	0	6
TAP	98	48	6
STR	98	96	2
SI_	98	96	2	96	48	0
TAP	98	192	5
BRK	98	288	7
TAP	99	0	1
TAP	99	48	1
STR	99	96	5
SI_	99	96	5	96	48	7
TAP	99	192	2
BRK	99	288	0
TAP	100	0	6
HLD	100	48	6	192
TAP	100	192	4
HLD	100	240	4	144
HLD	101	0	3	144
TAP	101	144	2
TAP	101	240	1
TAP	101	240	2
TAP	101	336	0
TAP	101	336	1
HLD	102	96	2	96
HLD	102	96	4	96
HLD	102	240	3	96
HLD	102	240	5	96
HLD	103	0	2	96
HLD	103	0	4	96
TAP	103	144	3
TAP	103	144	5
TAP	103	192	5
TAP	103	240	2
TAP	103	288	2
TAP	103	288	4
TAP	104	0	1
HLD	104	48	1	192
TAP	104	192	3
HLD	104	240	3	144
HLD	105	0	4	144
TAP	105	144	5
TAP	105	240	5
TAP	105	240	6
TAP	105	336	6
TAP	105	336	7
HLD	106	96	3	96
HLD	106	96	5	96
HLD	106	240	2	96
HLD	106	240	4	96
TAP	107	0	3
TAP	107	0	5
TAP	107	64	3
TAP	107	64	5
TAP	107	128	3
TAP	107	128	5
TAP	107	192	2
TAP	107	192	4
TAP	107	256	2
TAP	107	256	4
TAP	107	320	2
TAP	107	320	4
TAP	108	0	5
HLD	108	48	5	192
TAP	108	192	7
HLD	108	240	7	144
HLD	109	0	0	144
TAP	109	144	1
TAP	109	240	1
TAP	109	240	2
TAP	109	336	2
TAP	109	336	3
HLD	110	96	1	96
HLD	110	96	7	96
HLD	110	240	0	96
HLD	110	240	6	96
HLD	111	0	1	96
HLD	111	0	7	96
TAP	111	144	0
TAP	111	144	6
TAP	111	192	6
TAP	111	240	1
TAP	111	288	1
TAP	111	288	7
TAP	112	0	2
HLD	112	48	2	192
BRK	112	192	0
HLD	112	240	0	144
HLD	113	0	7	144
TAP	113	144	6
TAP	113	240	4
TAP	113	240	5
STR	113	336	2
SI_	113	336	2	96	240	5
STR	113	336	6
SI_	113	336	6	96	240	1
TAP	115	0	0
TAP	115	0	7
TAP	115	72	1
TAP	115	72	6
TAP	115	144	2
TAP	115	144	5
TAP	115	192	2
TAP	115	192	5
TAP	116	0	0
HLD	116	48	0	48
TAP	116	96	1
HLD	116	144	1	48
TAP	116	192	2
HLD	116	240	2	48
TAP	116	288	3
TAP	117	0	2
TAP	117	0	4
TAP	117	48	5
TAP	117	96	2
TAP	117	96	4
TAP	117	144	1
TAP	117	192	2
TAP	117	192	4
TAP	117	240	5
TAP	117	288	2
TAP	117	288	4
TAP	118	0	7
HLD	118	48	7	48
TAP	118	96	6
HLD	118	144	6	48
TAP	118	192	5
HLD	118	240	5	48
TAP	118	288	4
TAP	119	0	3
TAP	119	0	5
TAP	119	48	2
TAP	119	96	3
TAP	119	96	5
TAP	119	144	6
TAP	119	192	3
TAP	119	192	5
TAP	119	240	2
TAP	119	288	3
TAP	119	288	5
TAP	120	0	0
HLD	120	48	0	48
TAP	120	96	1
HLD	120	144	1	48
TAP	120	192	2
HLD	120	240	2	48
TAP	120	288	3
TAP	121	0	2
TAP	121	0	4
TAP	121	48	5
TAP	121	96	2
TAP	121	96	4
TAP	121	144	1
TAP	121	192	2
TAP	121	192	4
TAP	121	240	5
TAP	121	288	2
TAP	121	288	4
TAP	122	0	7
HLD	122	48	7	48
TAP	122	96	6
HLD	122	144	6	48
TAP	122	192	5
HLD	122	240	5	48
TAP	122	288	4
TAP	123	0	3
TAP	123	0	6
HLD	123	48	3	48
HLD	123	48	6	48
TAP	123	192	1
TAP	123	192	4
HLD	123	240	1	48
HLD	123	240	4	48
STR	124	0	3
SI_	124	0	3	96	288	0
STR	124	0	4
SI_	124	0	4	96	288	7
TAP	125	96	0
TAP	125	192	0
TAP	125	192	7
TAP	125	288	1
TAP	125	288	6
TAP	126	0	4
HLD	126	48	4	48
TAP	126	96	5
HLD	126	144	5	48
TAP	126	192	6
HLD	126	240	6	48
TAP	126	288	7
TAP	127	0	0
TAP	127	0	6
TAP	127	48	1
TAP	127	96	0
TAP	127	96	6
TAP	127	144	5
TAP	127	192	0
TAP	127	192	6
TAP	127	240	1
TAP	127	288	0
TAP	127	288	6
TAP	128	0	3
HLD	128	48	3	48
TAP	128	96	2
HLD	128	144	2	48
TAP	128	192	1
HLD	128	240	1	48
TAP	128	288	0
TAP	129	0	1
TAP	129	0	7
TAP	129	48	6
TAP	129	96	1
TAP	129	96	7
TAP	129	144	2
TAP	129	192	1
TAP	129	192	7
TAP	129	240	6
TAP	129	288	1
TAP	129	288	7
TAP	130	0	4
HLD	130	48	4	48
TAP	130	96	5
HLD	130	144	5	48
TAP	130	192	6
HLD	130	240	6	48
TAP	130	288	7
TAP	131	0	0
TAP	131	0	6
TAP	131	48	1
TAP	131	96	0
TAP	131	96	6
TAP	131	144	5
TAP	131	192	0
TAP	131	192	6
TAP	131	240	1
TAP	131	288	0
TAP	131	288	6
TAP	132	0	3
HLD	132	48	3	48
TAP	132	96	2
HLD	132	144	2	48
TAP	132	192	1
HLD	132	240	1	48
TAP	132	288	0
TAP	133	0	0
TAP	133	0	7
TAP	133	64	1
TAP	133	64	6
TAP	133	128	2
TAP	133	128	5
TAP	133	192	1
TAP	133	192	6
TAP	133	256	2
TAP	133	256	5
TAP	133	320	3
TAP	133	320	4
TAP	134	0	3
HLD	134	0	4	288
BRK	134	288	7
BRK	135	0	3
BRK	135	0	4

T_REC_TAP	605
T_REC_BRK	18
T_REC_XTP	0
T_REC_HLD	116
T_REC_XHO	0
T_REC_STR	44
T_REC_BST	0
T_REC_XST	0
T_REC_TTP	0
T_REC_THO	0
T_REC_SLD	45
T_REC_ALL	828
T_NUM_TAP	649
T_NUM_BRK	18
T_NUM_HLD	116
T_NUM_SLD	45
T_NUM_ALL	828
T_JUDGE_TAP	667
T_JUDGE_HLD	280
T_JUDGE_SLD	45
T_JUDGE_ALL	992
TTM_EACHPAIRS	196
TTM_SCR_TAP	324500
TTM_SCR_BRK	46800
TTM_SCR_HLD	116000
TTM_SCR_SLD	67500
TTM_SCR_ALL	554800
TTM_SCR_S	536450
TTM_SCR_SS	553000
TTM_RAT_ACV	10032

