VERSION	0.00.00	1.03.00
FES_MODE	0
BPM_DEF	220.000	220.000	220.000	220.000
MET_DEF	4	4
RESOLUTION	384
CLK_DEF	384
COMPATIBLE_CODE	MA2

BPM	0	0	220.000

HLD	4	0	2	96
HLD	4	0	3	96
TAP	4	192	2
TAP	4	192	3
HLD	5	0	4	96
HLD	5	0	5	96
TAP	5	192	4
TAP	5	192	5
HLD	6	0	2	96
HLD	6	0	3	96
TAP	6	192	1
TAP	6	192	4
HLD	7	0	4	96
HLD	7	0	5	96
TAP	7	192	3
TAP	7	192	6
HLD	8	0	0	96
HLD	8	0	1	96
TAP	8	192	0
TAP	8	192	1
HLD	9	0	6	96
HLD	9	0	7	96
TAP	9	192	6
TAP	9	192	7
HLD	10	0	0	96
HLD	10	0	7	96
TAP	10	192	1
TAP	10	192	6
TAP	11	0	2
TAP	11	0	5
TAP	11	96	2
TAP	11	96	5
TAP	11	192	3
TAP	11	192	4
HLD	12	0	2	96
HLD	12	0	3	96
HLD	12	192	3	96
HLD	12	192	4	96
HLD	13	0	4	96
HLD	13	0	5	96
BRK	13	192	6
BRK	13	288	6
HLD	14	0	4	96
HLD	14	0	5	96
HLD	14	192	3	96
HLD	14	192	4	96
HLD	15	0	2	96
HLD	15	0	3	96
BRK	15	192	1
BRK	15	288	1
TAP	16	0	2
TAP	16	96	2
TAP	16	192	3
TAP	16	192	4
TAP	17	0	5
TAP	17	96	5
TAP	17	192	3
TAP	17	192	4
TAP	18	0	2
TAP	18	96	2
TAP	18	192	3
TAP	18	288	3
TAP	19	0	4
TAP	19	0	5
TAP	19	96	4
TAP	19	96	5
TAP	19	192	3
TAP	19	192	6
HLD	20	0	2	96
HLD	20	0	3	96
HLD	20	192	2	96
HLD	20	192	3	96
TAP	21	0	2
TAP	21	0	3
TAP	21	96	2
TAP	21	96	3
TAP	21	192	1
TAP	21	192	4
HLD	22	0	4	96
HLD	22	0	5	96
HLD	22	192	4	96
HLD	22	192	5	96
TAP	23	0	4
TAP	23	0	5
TAP	23	96	4
TAP	23	96	5
TAP	23	192	3
TAP	23	192	6
HLD	24	0	0	96
HLD	24	0	7	96
HLD	24	192	1	96
HLD	24	192	6	96
HLD	25	0	2	96
HLD	25	0	5	96
TAP	25	192	3
TAP	25	192	4
TAP	26	0	5
TAP	26	96	4
TAP	26	96	5
TAP	26	192	2
TAP	26	288	2
TAP	26	288	3
TAP	27	0	4
TAP	27	96	4
BRK	27	192	2
BRK	27	192	6
TAP	28	0	6
TAP	28	96	6
TAP	28	192	5
TAP	28	288	5
TAP	29	0	4
TAP	29	96	3
TAP	29	192	2
TAP	29	192	4
TAP	30	0	1
TAP	30	96	1
TAP	30	192	2
TAP	30	288	2
TAP	31	0	3
TAP	31	96	4
TAP	31	192	3
TAP	31	192	5
TAP	32	0	6
TAP	32	96	6
TAP	32	192	5
TAP	32	288	5
TAP	33	0	4
TAP	33	96	3
TAP	33	96	4
TAP	33	192	2
TAP	33	192	5
TAP	34	0	5
TAP	34	96	4
TAP	34	192	2
STR	34	288	3
SI_	34	288	3	96	240	7
TAP	36	0	6
TAP	36	96	6
TAP	36	192	7
TAP	36	288	7
TAP	37	0	0
TAP	37	96	1
TAP	37	192	0
TAP	37	192	1
TAP	38	0	1
TAP	38	96	1
TAP	38	192	0
TAP	38	288	0
TAP	39	0	7
TAP	39	96	6
TAP	39	192	6
TAP	39	192	7
TAP	40	0	0
TAP	40	96	0
TAP	40	192	7
TAP	40	288	7
TAP	41	0	6
STR	41	96	6
SI_	41	96	6	96	144	3
TAP	42	0	2
TAP	42	96	2
TAP	42	192	0
TAP	42	192	1
TAP	42	288	0
TAP	42	288	1
TAP	43	0	7
TAP	43	96	7
TAP	43	192	4
TAP	43	192	6
BRK	43	288	4
BRK	43	288	6
STR	44	0	3
SLL	44	0	3	96	384	7
TAP	45	192	6
STR	45	288	6
SV_	45	288	6	96	336	4
TAP	47	192	2
STR	47	288	2
SV_	47	288	2	96	336	0
TAP	49	192	7
STR	49	288	7
SLL	49	288	7	96	384	3
TAP	51	192	2
TAP	51	192	5
HLD	52	0	1	96
HLD	52	0	3	96
TAP	52	192	1
TAP	52	192	3
TAP	52	288	2
TAP	53	0	3
TAP	53	0	4
TAP	53	96	3
TAP	53	96	4
TAP	53	192	3
TAP	53	192	4
HLD	54	0	4	96
HLD	54	0	6	96
TAP	54	192	4
TAP	54	192	6
TAP	54	288	5
TAP	55	0	3
TAP	55	0	4
TAP	55	96	3
TAP	55	96	4
TAP	55	192	3
TAP	55	192	4
HLD	56	0	1	96
HLD	56	0	3	96
HLD	56	192	4	96
HLD	56	192	6	96
HLD	57	0	3	96
HLD	57	0	4	96
STR	57	192	2
SLL	57	192	2	96	336	3
STR	57	192	5
SLR	57	192	5	96	336	4
TAP	59	0	3
TAP	59	0	4
TAP	59	96	3
TAP	59	96	4
BRK	59	192	2
BRK	59	192	5
TAP	60	0	1
TAP	60	96	2
TAP	60	96	3
TAP	60	192	6
TAP	60	288	4
TAP	60	288	5
TAP	61	0	3
TAP	61	0	4
TAP	61	96	2
TAP	61	192	3
TAP	61	192	4
TAP	61	288	5
TAP	62	0	2
TAP	62	96	0
TAP	62	96	1
TAP	62	192	5
STR	62	288	6
SCL	62	288	6	96	192	4
STR	62	288	7
SUL	62	288	7	96	192	3
TAP	64	0	5
TAP	64	96	6
TAP	64	96	7
TAP	64	192	2
TAP	64	288	0
TAP	64	288	1
TAP	65	0	0
TAP	65	0	7
TAP	65	96	6
TAP	65	192	0
TAP	65	192	7
TAP	65	288	1
TAP	66	0	6
TAP	66	96	4
TAP	66	96	5
TAP	66	192	1
STR	66	288	2
SCL	66	288	2	96	192	0
STR	66	288	3
SUL	66	288	3	96	192	7
HLD	68	0	5	192
TAP	68	96	4
TAP	68	192	4
HLD	69	0	2	192
TAP	69	96	3
TAP	69	192	3
HLD	70	0	3	96
HLD	70	0	4	96
TAP	70	192	3
TAP	70	192	4
TAP	70	288	3
TAP	70	288	4
BRK	71	0	5
BRK	71	96	2
BRK	71	192	5
BRK	71	288	2
HLD	72	0	5	192
TAP	72	96	3
TAP	72	192	4
HLD	73	0	2	192
TAP	73	96	4
TAP	73	192	3
TAP	74	0	4
TAP	74	0	6
TAP	74	96	5
TAP	74	192	1
TAP	74	192	3
TAP	74	288	2
TAP	75	0	4
TAP	75	96	3
TAP	75	96	5
TAP	75	192	2
TAP	75	192	6
HLD	76	0	6	192
TAP	76	96	0
TAP	76	192	7
HLD	77	0	1	192
TAP	77	96	7
TAP	77	192	0
HLD	78	0	2	96
HLD	78	0	3	96
HLD	78	192	4	96
HLD	78	192	5	96
TAP	79	0	2
TAP	79	0	3
TAP	79	96	1
TAP	79	96	4
TAP	79	192	0
TAP	79	192	5
HLD	80	0	0	96
HLD	80	0	7	96
HLD	80	192	1	96
HLD	80	192	6	96
HLD	81	0	2	96
HLD	81	0	5	96
TAP	81	192	3
TAP	81	192	4
TAP	82	0	5
TAP	82	96	4
TAP	82	96	6
TAP	82	192	2
TAP	82	288	1
TAP	82	288	3
TAP	83	0	4
TAP	83	0	5
TAP	83	96	4
TAP	83	96	5
BRK	83	192	2
BRK	83	192	7
TAP	84	0	0
TAP	84	96	1
TAP	84	192	2
TAP	84	192	3
TAP	84	288	2
TAP	84	288	3
TAP	85	0	4
TAP	85	96	5
TAP	85	192	3
TAP	85	192	6
TAP	86	0	7
TAP	86	96	6
TAP	86	192	4
TAP	86	192	5
TAP	86	288	4
TAP	86	288	5
TAP	87	0	3
TAP	87	96	2
TAP	87	192	1
TAP	87	192	4
TAP	88	0	3
TAP	88	96	2
TAP	88	192	0
TAP	88	192	1
TAP	88	288	0
TAP	88	288	1
TAP	89	0	7
TAP	89	96	6
TAP	89	192	0
TAP	89	192	5
TAP	90	0	4
TAP	90	0	6
TAP	90	96	5
TAP	90	192	1
TAP	90	192	3
STR	90	288	2
SCL	90	288	2	96	240	7
TAP	92	0	4
TAP	92	0	6
TAP	92	96	4
TAP	92	96	6
TAP	92	192	3
TAP	92	288	2
TAP	93	0	1
TAP	93	0	3
TAP	93	96	1
TAP	93	96	3
TAP	93	192	0
TAP	93	192	7
TAP	94	0	1
TAP	94	0	3
TAP	94	96	1
TAP	94	96	3
TAP	94	192	4
TAP	94	288	5
TAP	95	0	4
TAP	95	0	6
TAP	95	96	4
TAP	95	96	6
TAP	95	192	0
TAP	95	192	7
TAP	96	0	4
TAP	96	0	5
TAP	96	96	6
TAP	96	192	2
TAP	96	192	3
TAP	96	288	1
TAP	97	0	4
TAP	97	0	5
STR	97	96	6
SI_	97	96	6	96	144	1
TAP	98	0	2
TAP	98	96	2
TAP	98	192	2
TAP	98	192	3
TAP	98	288	1
TAP	98	288	4
TAP	99	0	5
TAP	99	96	5
TAP	99	192	4
TAP	99	192	5
BRK	99	288	3
BRK	99	288	6
STR	100	0	2
SCL	100	0	2	96	480	5
STR	102	0	4
SUR	102	0	4	96	480	3
STR	104	0	1
SCR	104	0	1	96	480	6
HLD	106	0	0	96
HLD	106	0	7	96
HLD	106	192	0	96
HLD	106	192	7	96
HLD	107	0	1	96
HLD	107	0	6	96
HLD	107	192	2	96
HLD	107	192	5	96
STR	108	0	3
SCL	108	0	3	96	480	6
STR	110	0	5
SUR	110	0	5	96	480	4
STR	112	0	3
SI_	112	0	3	96	432	7
STR	112	0	4
SI_	112	0	4	96	432	0
HLD	114	0	1	192
HLD	114	0	6	192
HLD	115	0	3	96
HLD	115	0	4	96
BRK	115	192	2
BRK	115	192	5
TAP	116	0	2
TAP	116	96	0
TAP	116	96	1
TAP	116	192	5
TAP	116	288	6
TAP	116	288	7
TAP	117	0	0
TAP	117	0	7
TAP	117	96	1
TAP	117	192	0
TAP	117	192	7
TAP	117	288	6
TAP	118	0	1
TAP	118	96	2
TAP	118	96	3
TAP	118	192	6
STR	118	288	4
SUR	118	288	4	96	192	1
STR	118	288	5
SCR	118	288	5	96	192	0
TAP	120	0	1
TAP	120	96	2
TAP	120	96	3
TAP	120	192	6
TAP	120	288	4
TAP	120	288	5
TAP	121	0	2
TAP	121	0	3
TAP	121	96	1
TAP	121	192	4
TAP	121	192	5
TAP	121	288	6
TAP	122	0	2
TAP	122	96	0
TAP	122	96	1
TAP	122	192	5
STR	122	288	6
SCL	122	288	6	96	192	3
STR	122	288	7
SUL	122	288	7	96	192	2
STR	124	0	3
SCL	124	0	3	96	288	0
STR	124	0	4
SCR	124	0	4	96	288	7
BRK	125	192	1
BRK	125	192	6
TAP	126	0	1
TAP	126	0	3
TAP	126	96	0
TAP	126	192	4
TAP	126	192	6
TAP	126	288	7
TAP	127	0	1
TAP	127	0	3
TAP	127	96	3
TAP	127	96	4
TAP	127	192	4
TAP	127	192	6
TAP	127	288	7
TAP	128	0	3
TAP	128	0	6
TAP	128	96	5
TAP	128	192	1
TAP	128	192	4
STR	128	288	2
SCL	128	288	2	96	192	7
STR	128	288	3
SUL	128	288	3	96	192	6
TAP	130	0	4
TAP	130	0	6
TAP	130	96	7
TAP	130	192	1
TAP	130	192	3
TAP	130	288	0
TAP	131	0	4
TAP	131	0	6
TAP	131	96	3
TAP	131	96	4
TAP	131	192	1
TAP	131	192	3
TAP	131	288	0
TAP	132	0	1
TAP	132	0	4
TAP	132	96	2
TAP	132	192	3
TAP	132	192	6
STR	132	288	4
SUR	132	288	4	96	192	1
STR	132	288	5
SCR	132	288	5	96	192	0
HLD	134	0	2	288
TAP	134	0	3
TAP	134	288	4
BRK	135	0	0
BRK	135	0	6

T_REC_TAP	370
T_REC_BRK	24
T_REC_XTP	0
T_REC_HLD	81
T_REC_XHO	0
T_REC_STR	31
T_REC_BST	0
T_REC_XST	0
T_REC_TTP	0
T_REC_THO	0
T_REC_SLD	31
T_REC_ALL	537
T_NUM_TAP	401
T_NUM_BRK	24
T_NUM_HLD	81
T_NUM_SLD	31
T_NUM_ALL	537
T_JUDGE_TAP	425
T_JUDGE_HLD	182
T_JUDGE_SLD	31
T_JUDGE_ALL	638
TTM_EACHPAIRS	174
TTM_SCR_TAP	200500
TTM_SCR_BRK	62400
TTM_SCR_HLD	81000
TTM_SCR_SLD	46500
TTM_SCR_ALL	390400
TTM_SCR_S	376400
TTM_SCR_SS	388000
TTM_RAT_ACV	10061

