VERSION	0.00.00	1.03.00
FES_MODE	0
BPM_DEF	220.000	220.000	220.000	220.000
MET_DEF	4	4
RESOLUTION	384
CLK_DEF	384
COMPATIBLE_CODE	MA2

BPM	0	0	220.000
MET	0	0	4	4

STR	4	0	0
SI_	4	0	0	96	288	3
STR	6	0	7
SI_	6	0	7	96	288	4
STR	8	0	3
SI_	8	0	3	96	288	0
STR	10	0	4
SI_	10	0	4	96	288	7
TAP	12	0	0
TAP	12	192	0
TAP	13	0	1
TAP	13	192	1
TAP	14	0	2
TAP	14	192	2
TAP	15	0	3
TAP	15	192	3
TAP	15	192	4
TAP	16	0	4
TAP	16	192	4
TAP	17	0	5
TAP	17	192	5
TAP	18	0	6
TAP	18	192	6
TAP	19	0	7
TAP	19	192	0
TAP	19	192	7
HLD	20	0	0	192
TAP	21	0	1
TAP	21	192	1
HLD	22	0	2	192
TAP	23	0	3
TAP	23	192	3
TAP	23	192	4
HLD	24	0	4	192
TAP	25	0	5
TAP	25	192	5
HLD	26	0	6	192
TAP	27	0	7
TAP	27	192	0
TAP	27	192	7
TAP	28	0	7
TAP	28	192	7
TAP	29	0	6
TAP	29	96	6
TAP	29	192	6
TAP	30	0	5
TAP	30	192	5
TAP	31	0	4
TAP	31	96	4
TAP	31	192	3
TAP	31	192	4
TAP	32	0	3
TAP	32	192	3
TAP	33	0	2
TAP	33	96	2
TAP	33	192	2
TAP	34	0	1
TAP	34	192	1
TAP	35	0	0
TAP	35	96	0
TAP	35	192	0
TAP	35	192	7
TAP	36	0	1
TAP	36	192	2
TAP	37	0	3
TAP	37	96	4
TAP	37	192	3
TAP	37	192	4
TAP	38	0	5
TAP	38	192	6
TAP	39	0	7
TAP	39	96	0
TAP	39	192	0
TAP	39	192	7
TAP	40	0	6
TAP	40	192	5
TAP	41	0	4
TAP	41	96	3
TAP	41	192	3
TAP	41	192	4
TAP	42	0	2
TAP	42	192	1
TAP	43	0	0
TAP	43	96	7
TAP	43	192	0
TAP	43	192	7
HLD	44	0	0	384
HLD	46	0	1	384
HLD	48	0	2	384
HLD	50	0	3	384
TAP	52	0	4
TAP	52	192	4
TAP	53	0	4
TAP	53	0	5
TAP	54	0	6
TAP	54	192	6
TAP	55	0	6
TAP	55	0	7
TAP	56	0	0
TAP	56	192	0
TAP	57	0	0
TAP	57	0	1
TAP	58	0	2
TAP	58	192	2
TAP	59	0	3
TAP	59	0	4
TAP	59	192	2
TAP	59	192	5
TAP	60	0	2
TAP	60	96	3
TAP	60	192	2
TAP	60	192	3
TAP	61	0	5
TAP	61	96	4
TAP	61	192	4
TAP	61	192	5
TAP	62	0	2
TAP	62	96	3
TAP	62	192	2
TAP	62	192	3
TAP	63	0	5
TAP	63	96	4
TAP	63	192	4
TAP	63	192	5
TAP	64	0	6
TAP	64	96	7
TAP	64	192	6
TAP	64	192	7
TAP	65	0	1
TAP	65	96	0
TAP	65	192	0
TAP	65	192	1
TAP	66	0	6
TAP	66	96	7
TAP	66	192	6
TAP	66	192	7
TAP	67	0	1
TAP	67	96	0
TAP	67	192	0
TAP	67	192	1
HLD	68	0	6	192
HLD	68	0	7	192
TAP	69	0	6
TAP	69	0	7
TAP	69	192	0
TAP	69	192	7
HLD	70	0	0	192
HLD	70	0	1	192
TAP	71	0	0
TAP	71	0	1
TAP	71	192	0
TAP	71	192	1
HLD	72	0	2	192
HLD	72	0	3	192
TAP	73	0	2
TAP	73	0	3
TAP	73	192	3
TAP	73	192	4
HLD	74	0	4	192
HLD	74	0	5	192
TAP	75	0	4
TAP	75	0	5
TAP	75	192	4
TAP	75	192	5
STR	76	0	4
SI_	76	0	4	96	288	7
STR	78	0	3
SI_	78	0	3	96	288	0
STR	80	0	0
SI_	80	0	0	96	288	3
STR	82	0	7
SI_	82	0	7	96	288	4
HLD	84	0	4	192
TAP	85	0	4
TAP	85	192	4
TAP	85	192	5
HLD	86	0	6	192
TAP	87	0	6
TAP	87	192	6
TAP	87	192	7
HLD	88	0	0	192
TAP	89	0	0
TAP	89	192	0
TAP	89	192	1
HLD	90	0	2	192
TAP	91	0	2
TAP	91	192	2
TAP	91	192	3
TAP	92	0	4
TAP	92	192	4
TAP	93	0	5
TAP	93	96	5
TAP	93	192	5
TAP	94	0	6
TAP	94	192	6
TAP	95	0	7
TAP	95	96	7
TAP	95	192	0
TAP	95	192	7
TAP	96	0	0
TAP	96	192	0
TAP	97	0	1
TAP	97	96	1
TAP	97	192	1
TAP	98	0	2
TAP	98	192	2
TAP	99	0	3
TAP	99	96	3
TAP	99	192	3
TAP	99	192	4
HLD	100	0	4	384
HLD	102	0	5	384
HLD	104	0	6	384
HLD	106	0	7	384
TAP	108	0	0
TAP	108	192	0
TAP	109	0	0
TAP	109	0	1
TAP	110	0	2
TAP	110	192	2
TAP	111	0	2
TAP	111	0	3
TAP	112	0	4
TAP	112	192	4
TAP	113	0	4
TAP	113	0	5
TAP	114	0	6
TAP	114	192	6
TAP	115	0	0
TAP	115	0	7
TAP	115	192	1
TAP	115	192	6
TAP	116	0	6
TAP	116	96	7
TAP	116	192	6
TAP	116	192	7
TAP	117	0	1
TAP	117	96	0
TAP	117	192	0
TAP	117	192	1
TAP	118	0	6
TAP	118	96	7
TAP	118	192	6
TAP	118	192	7
TAP	119	0	1
TAP	119	96	0
TAP	119	192	0
TAP	119	192	1
TAP	120	0	2
TAP	120	96	3
TAP	120	192	2
TAP	120	192	3
TAP	121	0	5
TAP	121	96	4
TAP	121	192	4
TAP	121	192	5
TAP	122	0	2
TAP	122	96	3
TAP	122	192	2
TAP	122	192	3
TAP	123	0	5
TAP	123	96	4
TAP	123	192	4
TAP	123	192	5
HLD	124	0	3	384
HLD	124	0	4	384
TAP	126	0	5
TAP	126	96	4
TAP	126	192	3
TAP	126	192	5
TAP	127	0	2
TAP	127	96	3
TAP	127	192	2
TAP	127	192	4
TAP	128	0	5
TAP	128	96	4
TAP	128	192	3
TAP	128	192	5
TAP	129	0	2
TAP	129	96	3
TAP	129	192	2
TAP	129	192	4
TAP	130	0	1
TAP	130	96	0
TAP	130	192	1
TAP	130	192	7
TAP	131	0	6
TAP	131	96	7
TAP	131	192	0
TAP	131	192	6
TAP	132	0	1
TAP	132	96	0
TAP	132	192	1
TAP	132	192	7
TAP	133	0	6
TAP	133	96	7
TAP	133	192	0
TAP	133	192	6
BRK	134	0	0
BRK	134	0	7
BRK	134	288	0
BRK	134	288	7
BRK	135	0	0
BRK	135	0	7

T_REC_TAP	256
T_REC_BRK	6
T_REC_XTP	0
T_REC_HLD	26
T_REC_XHO	0
T_REC_STR	8
T_REC_BST	0
T_REC_XST	0
T_REC_TTP	0
T_REC_THO	0
T_REC_SLD	8
T_REC_ALL	304
T_NUM_TAP	264
T_NUM_BRK	6
T_NUM_HLD	26
T_NUM_SLD	8
T_NUM_ALL	304
T_JUDGE_TAP	270
T_JUDGE_HLD	144
T_JUDGE_SLD	8
T_JUDGE_ALL	422
TTM_EACHPAIRS	66
TTM_SCR_TAP	132000
TTM_SCR_BRK	15600
TTM_SCR_HLD	26000
TTM_SCR_SLD	12000
TTM_SCR_ALL	185600
TTM_SCR_S	179450
TTM_SCR_SS	185000
TTM_RAT_ACV	10032

