VERSION	0.00.00	1.03.00
FES_MODE	0
BPM_DEF	165.000	165.000	165.000	165.000
MET_DEF	4	4
RESOLUTION	384
CLK_DEF	384
COMPATIBLE_CODE	MA2

BPM	0	0	165.000
MET	0	0	4	4

STR	1	0	0
SXL	1	0	0	96	192	3
STR	1	0	4
SXL	1	0	4	96	192	7
HLD	2	0	2	288
STR	2	0	7
SI_	2	0	7	96	48	3
STR	2	192	3
SI_	2	192	3	96	48	6
TAP	2	336	2
HLD	3	0	2	192
STR	3	0	6
SI_	3	0	6	96	48	1
STR	3	192	1
SI_	3	192	1	96	48	4
TAP	3	240	2
TAP	3	288	2
TAP	3	336	2
STR	4	0	0
SI_	4	0	0	96	48	4
HLD	4	0	5	288
STR	4	192	4
SI_	4	192	4	96	48	1
TAP	4	336	5
STR	5	0	1
SI_	5	0	1	96	48	6
HLD	5	0	5	192
STR	5	192	6
SI_	5	192	6	96	48	3
TAP	5	240	5
TAP	5	288	5
TAP	5	336	5
TAP	6	0	2
STR	6	0	7
SI_	6	0	7	96	48	3
TAP	6	96	2
TAP	6	192	2
STR	6	192	3
SI_	6	192	3	96	48	6
TAP	6	288	2
TAP	6	336	2
TAP	7	0	2
STR	7	0	6
SI_	7	0	6	96	48	1
TAP	7	96	2
STR	7	192	1
SI_	7	192	1	96	48	4
TAP	7	192	2
TAP	7	240	2
TAP	7	288	2
TAP	7	336	2
STR	8	0	0
SI_	8	0	0	96	48	4
TAP	8	0	5
TAP	8	48	5
TAP	8	96	5
TAP	8	144	5
STR	8	192	4
SI_	8	192	4	96	48	1
TAP	8	192	5
TAP	8	240	5
TAP	8	288	5
TAP	8	336	5
TAP	9	0	1
TAP	9	0	5
TAP	9	48	2
TAP	9	48	6
TAP	9	96	3
TAP	9	96	7
STR	9	144	0
SXR	9	144	0	96	72	6
STR	9	144	4
SXR	9	144	4	96	72	2
TAP	9	168	0
TAP	9	168	4
HLD	10	0	3	0
HLD	10	0	7	264
HLD	10	192	6	0
HLD	10	264	0	0
TAP	11	0	1
TAP	11	0	5
TAP	11	48	1
TAP	11	48	5
STR	11	96	3
SV_	11	96	3	96	96	1
STR	11	96	7
SV_	11	96	7	96	96	5
TAP	11	144	3
TAP	11	144	7
TAP	12	0	1
TAP	12	0	5
TAP	12	48	1
TAP	12	48	5
STR	12	96	3
SLR	12	96	3	96	96	1
STR	12	96	7
SLL	12	96	7	96	96	1
TAP	12	144	3
TAP	12	144	7
TAP	13	0	1
TAP	13	0	5
TAP	13	48	1
TAP	13	48	5
STR	13	96	3
SSL	13	96	3	96	96	7
STR	13	96	7
SSL	13	96	7	96	96	3
TAP	13	144	3
TAP	13	144	7
TAP	14	0	1
TAP	14	0	5
TAP	14	48	1
TAP	14	48	5
STR	14	96	3
SUL	14	96	3	96	96	5
STR	14	96	7
SUL	14	96	7	96	96	1
TAP	14	144	3
TAP	14	144	7
TAP	15	0	3
TAP	15	0	7
TAP	15	48	2
TAP	15	48	6
TAP	15	96	3
TAP	15	96	7
TAP	15	144	2
TAP	15	144	6
STR	15	192	0
SI_	15	192	0	96	48	4
STR	15	192	4
SI_	15	192	4	96	48	0
TAP	16	0	1
TAP	16	0	5
TAP	16	48	2
TAP	16	48	6
TAP	16	96	1
TAP	16	96	5
TAP	16	144	2
TAP	16	144	6
STR	16	192	2
SI_	16	192	2	96	48	6
STR	16	192	5
SI_	16	192	5	96	48	1
TAP	17	0	3
TAP	17	0	4
TAP	17	48	1
TAP	17	48	6
TAP	17	96	2
TAP	17	96	5
TAP	17	144	0
TAP	17	144	7
STR	17	192	3
SI_	17	192	3	96	24	5
STR	17	192	4
SI_	17	192	4	96	48	0
TAP	18	0	7
TAP	18	24	3
TAP	18	48	6
TAP	18	72	2
TAP	18	96	5
TAP	18	120	1
TAP	18	144	4
TAP	18	168	0
STR	18	192	3
SF_	18	192	3	96	48	7
BRK	18	288	3
TAP	19	0	0
HLD	19	24	0	48
TAP	19	72	6
HLD	19	96	6	48
TAP	19	144	2
HLD	19	168	2	48
TAP	19	216	4
HLD	19	240	4	48
TAP	19	288	3
TAP	19	312	4
TAP	19	336	3
TAP	19	360	4
TAP	20	0	3
TAP	20	24	3
TAP	20	48	7
TAP	20	72	7
TAP	20	96	1
TAP	20	120	1
TAP	20	144	5
TAP	20	168	5
TAP	20	192	0
TAP	20	216	7
TAP	20	240	0
TAP	20	264	7
BRK	20	288	1
BRK	20	288	6
TAP	21	0	1
TAP	21	24	4
TAP	21	48	1
TAP	21	72	3
TAP	21	96	1
TAP	21	120	2
TAP	21	144	1
TAP	21	192	6
TAP	21	216	3
TAP	21	240	6
TAP	21	264	4
TAP	21	288	6
TAP	21	312	5
TAP	21	336	6
TAP	22	0	1
TAP	22	24	3
TAP	22	48	2
TAP	22	72	6
TAP	22	96	4
TAP	22	120	5
TAP	22	144	3
TAP	22	168	4
HLD	22	192	3	48
BRK	22	240	6
TAP	22	256	5
TAP	22	272	4
TAP	22	288	3
BRK	22	336	1
TAP	22	352	2
TAP	22	368	3
TAP	23	0	4
TAP	23	48	6
TAP	23	96	6
TAP	23	144	1
TAP	23	192	1
TAP	23	240	4
TAP	23	288	4
HLD	23	336	3	96
TAP	24	48	5
STR	24	96	3
SI_	24	96	3	96	96	7
STR	24	96	5
SI_	24	96	5	96	96	1
TAP	25	0	0
TAP	25	0	7
TAP	25	48	6
TAP	25	96	6
TAP	25	144	2
TAP	25	192	2
TAP	25	240	4
TAP	25	288	4
TAP	25	336	0
STR	26	0	0
SF_	26	0	0	96	48	4
TAP	26	192	2
TAP	26	192	6
TAP	26	288	2
TAP	26	288	6
TAP	27	0	0
TAP	27	0	7
TAP	27	48	7
TAP	27	96	4
TAP	27	96	6
TAP	27	144	2
TAP	27	192	1
TAP	27	192	3
TAP	27	240	0
STR	27	288	0
SCR	27	288	0	96	96	4
TAP	27	288	7
STR	28	0	4
SCR	28	0	4	96	96	0
STR	28	96	0
SCR	28	96	0	96	96	4
TAP	28	192	4
TAP	28	288	0
TAP	29	0	1
TAP	29	0	7
TAP	29	48	5
TAP	29	96	4
TAP	29	144	2
TAP	29	192	1
TAP	29	192	3
TAP	29	240	4
TAP	29	288	5
TAP	29	336	1
STR	30	0	0
SCR	30	0	0	96	48	3
STR	30	0	4
SCR	30	0	4	96	48	7
STR	30	192	0
SCL	30	192	0	96	48	5
STR	30	192	4
SCL	30	192	4	96	48	1
TAP	31	0	5
TAP	31	48	4
TAP	31	96	3
TAP	31	96	6
TAP	31	144	5
TAP	31	192	2
TAP	31	240	3
TAP	31	288	1
TAP	31	288	4
TAP	31	336	2
TAP	32	0	5
TAP	32	48	4
TAP	32	96	3
TAP	32	96	6
TAP	32	144	5
STR	32	192	3
SI_	32	192	3	96	48	0
STR	32	192	4
SI_	32	192	4	96	48	7
TAP	33	0	1
TAP	33	48	0
TAP	33	96	2
TAP	33	96	7
TAP	33	144	1
TAP	33	192	6
TAP	33	240	7
TAP	33	288	0
TAP	33	288	5
TAP	33	336	6
STR	34	0	1
SCR	34	0	1	96	48	4
STR	34	96	7
SCL	34	96	7	96	48	4
STR	34	192	0
SI_	34	192	0	96	48	4
SSR	34	192	0	96	48	4
BRK	35	0	3
BRK	35	0	6
BRK	35	96	1
BRK	35	96	4
TAP	35	192	5
TAP	35	240	4
TAP	35	288	3
TAP	35	288	6
TAP	35	336	5
TAP	36	0	2
TAP	36	48	3
TAP	36	96	1
TAP	36	96	4
TAP	36	144	2
STR	36	192	3
SCL	36	192	3	96	48	0
STR	36	192	4
SCR	36	192	4	96	48	7
TAP	37	0	2
TAP	37	48	3
TAP	37	96	4
TAP	37	144	5
TAP	37	192	6
TAP	37	192	7
TAP	37	240	0
TAP	37	240	1
TAP	37	288	2
TAP	37	288	3
TAP	37	336	4
TAP	37	336	5
TAP	38	48	3
TAP	38	48	7
TAP	38	144	1
TAP	38	144	5
BRK	38	240	0
BRK	38	288	0
STR	39	0	0
SI_	39	0	0	96	48	3
STR	39	0	1
SI_	39	0	1	96	48	6
TAP	39	48	0
TAP	39	48	1
STR	39	192	4
SI_	39	192	4	96	48	7
STR	39	192	5
SI_	39	192	5	96	48	2
TAP	39	240	4
TAP	39	240	5
STR	40	0	0
SI_	40	0	0	96	96	4
STR	40	0	3
SLL	40	0	3	96	96	6
TAP	40	48	0
TAP	40	48	3
TAP	40	288	2
TAP	40	288	5
STR	41	0	6
SI_	41	0	6	96	48	1
STR	41	0	7
SI_	41	0	7	96	48	4
TAP	41	48	6
TAP	41	48	7
STR	41	192	2
SI_	41	192	2	96	48	5
STR	41	192	3
SI_	41	192	3	96	48	0
TAP	41	240	2
TAP	41	240	3
TAP	42	0	0
TAP	42	0	5
TAP	42	48	6
TAP	42	96	7
TAP	42	144	0
TAP	42	192	1
TAP	42	192	4
TAP	42	240	2
TAP	42	240	3
TAP	42	264	2
TAP	42	264	3
TAP	42	336	3
TAP	42	336	4
TAP	43	0	2
TAP	43	0	3
TAP	43	48	1
TAP	43	96	2
TAP	43	96	3
TAP	43	144	4
TAP	43	192	2
TAP	43	192	3
TAP	43	240	1
TAP	43	288	2
TAP	43	288	3
TAP	43	336	3
TAP	43	336	4
TAP	44	0	4
TAP	44	0	5
TAP	44	48	6
TAP	44	96	4
TAP	44	96	5
TAP	44	144	3
TAP	44	192	4
TAP	44	192	5
TAP	44	240	6
TAP	44	288	4
TAP	44	288	5
TAP	44	336	3
TAP	44	336	4
TAP	45	0	2
TAP	45	0	3
TAP	45	48	1
TAP	45	48	3
TAP	45	96	0
TAP	45	96	3
TAP	45	144	3
TAP	45	144	7
TAP	45	192	4
TAP	45	192	5
TAP	45	240	4
TAP	45	240	6
TAP	45	288	4
TAP	45	288	7
TAP	45	336	0
TAP	45	336	4
TAP	46	0	3
TAP	46	24	7
TAP	46	48	2
TAP	46	72	6
TAP	46	96	1
TAP	46	120	5
TAP	46	144	0
TAP	46	168	4
STR	46	192	0
SF_	46	192	0	96	48	4
TAP	46	288	0
HLD	47	0	2	288
BRK	47	0	6
TAP	47	96	3
TAP	47	112	4
TAP	47	128	5
TAP	47	144	6
TAP	47	160	7
TAP	47	176	0
STR	47	192	1
SI_	47	192	1	96	48	6
BRK	47	288	1
STR	48	0	1
SI_	48	0	1	96	48	4
TAP	48	0	5
TAP	48	48	0
STR	48	96	6
SI_	48	96	6	96	48	3
TAP	48	144	7
STR	48	192	1
SI_	48	192	1	96	48	4
TAP	48	240	0
STR	48	288	6
SXR	48	288	6	96	168	3
TAP	48	336	7
TAP	49	0	2
TAP	49	48	1
TAP	49	96	0
TAP	49	144	7
TAP	49	168	7
BRK	49	240	1
BRK	49	240	5
BRK	49	288	3
BRK	49	288	7
STR	50	0	7
SI_	50	0	7	96	48	1
STR	50	48	1
SV_	50	48	1	96	48	2
STR	50	96	2
SLR	50	96	2	96	96	7
STR	50	192	0
SI_	50	192	0	96	48	4
STR	51	0	3
SCL	51	0	3	96	48	0
STR	51	0	7
SCL	51	0	7	96	48	4
STR	51	96	3
SI_	51	96	3	96	48	7
TAP	51	96	7
TAP	51	192	1
TAP	51	192	3
BRK	51	240	0
BRK	51	288	0
STR	52	0	0
SI_	52	0	0	96	48	3
HLD	52	0	6	384
STR	52	96	0
SI_	52	96	0	96	48	4
STR	52	192	0
SI_	52	192	0	96	48	5
TAP	52	288	0
TAP	53	0	7
TAP	53	48	0
TAP	53	48	1
TAP	53	96	2
TAP	53	96	3
TAP	53	144	4
TAP	53	144	5
TAP	53	240	3
TAP	53	240	4
STR	53	288	1
SI_	53	288	1	96	48	5
TAP	53	288	6
STR	54	0	1
SCL	54	0	1	96	48	6
SCR	54	0	1	96	48	4
STR	54	96	1
SI_	54	96	1	96	48	5
STR	54	192	1
SCL	54	192	1	96	48	5
SCR	54	192	1	96	48	5
STR	54	288	1
SF_	54	288	1	96	48	5
BRK	55	0	1
BRK	55	96	3
BRK	55	96	7
BRK	55	192	6
BRK	55	240	6
BRK	55	264	6
TAP	56	0	2
STR	56	0	6
SI_	56	0	6	96	48	3
TAP	56	48	7
STR	56	96	1
SI_	56	96	1	96	48	4
TAP	56	144	0
STR	56	192	6
SI_	56	192	6	96	48	3
TAP	56	240	7
STR	56	288	1
SXL	56	288	1	96	168	4
TAP	56	336	0
TAP	57	0	5
TAP	57	48	6
TAP	57	96	7
TAP	57	144	0
TAP	57	168	0
BRK	57	240	2
BRK	57	240	6
BRK	57	288	0
BRK	57	288	4
STR	58	0	1
SI_	58	0	1	96	48	4
TAP	58	0	5
TAP	58	48	0
STR	58	96	6
SI_	58	96	6	96	48	3
TAP	58	144	7
STR	58	192	1
SI_	58	192	1	96	48	4
TAP	58	240	0
STR	58	288	6
SI_	58	288	6	96	48	3
TAP	58	336	7
TAP	59	0	2
TAP	59	48	1
TAP	59	96	0
TAP	59	144	3
TAP	59	144	7
BRK	59	168	0
BRK	59	168	4
TAP	59	336	3
TAP	59	336	4
STR	60	0	2
SCR	60	0	2	96	48	5
TAP	60	0	5
TAP	60	96	7
TAP	60	192	2
STR	60	192	5
SCL	60	192	5	96	48	2
TAP	60	288	0
STR	61	0	3
SI_	61	0	3	96	48	7
STR	61	48	7
SF_	61	48	7	96	48	3
TAP	61	240	6
TAP	61	288	5
TAP	61	336	4
BRK	62	0	3
TAP	62	24	2
TAP	62	48	1
TAP	62	72	0
TAP	62	96	7
TAP	62	120	6
TAP	62	144	5
TAP	62	168	4
BRK	62	192	3
TAP	62	216	2
TAP	62	240	1
TAP	62	264	0
BRK	62	288	7
TAP	62	312	6
TAP	62	336	5
TAP	62	360	4
BRK	63	0	3
TAP	63	12	2
TAP	63	24	1
TAP	63	36	0
BRK	63	48	7
TAP	63	60	6
TAP	63	72	5
TAP	63	84	4
BRK	63	96	3
TAP	63	108	2
BRK	63	120	1
TAP	63	132	0
BRK	63	144	7
TAP	63	156	6
BRK	63	168	5
TAP	63	180	4
BRK	63	192	3
BRK	63	204	2
BRK	63	216	1
BRK	63	228	0
BRK	63	240	7
BRK	63	252	6
BRK	63	264	5
BRK	63	276	4
BRK	63	288	3
HLD	64	0	0	72
STR	64	0	1
SI_	64	0	1	96	48	4
TAP	64	72	1
TAP	64	96	0
TAP	64	144	7
STR	64	192	6
SI_	64	192	6	96	48	3
HLD	64	192	7	72
TAP	64	264	6
TAP	64	288	7
TAP	64	336	0
HLD	65	0	1	96
HLD	65	0	5	96
TAP	65	144	2
TAP	65	144	6
TAP	65	192	0
TAP	65	216	1
TAP	65	240	2
TAP	65	264	3
TAP	65	288	7
TAP	65	312	6
TAP	65	336	5
TAP	65	360	4
STR	66	0	2
SLR	66	0	2	96	96	0
TAP	66	24	2
TAP	66	72	4
TAP	66	144	6
STR	66	192	5
SLL	66	192	5	96	96	7
TAP	66	216	5
TAP	66	264	3
TAP	66	336	1
TAP	67	0	0
TAP	67	24	1
TAP	67	48	2
HLD	67	72	3	72
TAP	67	144	4
TAP	67	192	0
TAP	67	216	7
TAP	67	240	0
TAP	67	264	7
BRK	67	288	1
BRK	67	288	6
TAP	68	0	2
TAP	68	24	3
TAP	68	48	2
TAP	68	72	4
TAP	68	96	2
TAP	68	120	5
TAP	68	144	2
TAP	68	168	6
TAP	68	192	2
TAP	68	216	6
TAP	68	240	1
TAP	68	264	6
TAP	68	288	0
TAP	68	312	6
TAP	68	336	6
TAP	68	336	7
TAP	69	0	5
TAP	69	24	4
TAP	69	48	5
TAP	69	72	3
TAP	69	96	5
TAP	69	120	2
TAP	69	144	5
TAP	69	168	1
TAP	69	192	5
TAP	69	216	1
TAP	69	240	6
TAP	69	264	1
TAP	69	288	7
TAP	69	312	1
TAP	69	336	0
TAP	69	336	1
TAP	70	0	3
TAP	70	24	2
TAP	70	48	1
TAP	70	72	0
TAP	70	96	4
TAP	70	120	5
TAP	70	144	6
TAP	70	168	7
TAP	70	192	0
TAP	70	204	1
TAP	70	216	2
TAP	70	228	3
TAP	70	240	4
TAP	70	252	5
TAP	70	264	6
TAP	70	276	7
HLD	70	288	0	6
HLD	70	300	1	6
HLD	70	312	2	6
HLD	70	324	3	6
HLD	70	336	4	6
HLD	70	348	5	6
HLD	70	360	6	6
HLD	70	372	7	6
STR	71	0	0
SUR	71	0	0	96	120	6
STR	71	0	4
SUR	71	0	4	96	120	2
BRK	71	288	3
BRK	71	288	7
STR	72	0	1
SI_	72	0	1	96	48	4
TAP	72	0	5
TAP	72	48	0
STR	72	96	6
SI_	72	96	6	96	48	3
TAP	72	144	7
STR	72	192	1
SI_	72	192	1	96	48	4
TAP	72	240	0
STR	72	288	6
SXR	72	288	6	96	168	3
TAP	72	336	7
TAP	73	0	2
TAP	73	48	1
TAP	73	96	0
TAP	73	144	7
TAP	73	168	7
BRK	73	240	1
BRK	73	240	5
BRK	73	288	3
BRK	73	288	7
TAP	74	0	2
STR	74	0	6
SI_	74	0	6	96	48	3
TAP	74	48	7
STR	74	96	1
SI_	74	96	1	96	48	4
TAP	74	144	0
STR	74	192	6
SI_	74	192	6	96	48	3
TAP	74	240	7
STR	74	288	1
SI_	74	288	1	96	48	4
TAP	74	336	0
TAP	75	0	5
TAP	75	48	6
TAP	75	96	7
TAP	75	144	0
TAP	75	144	4
BRK	75	168	3
BRK	75	168	7
TAP	75	336	3
TAP	75	336	4
STR	76	0	2
SCR	76	0	2	96	48	5
TAP	76	0	5
TAP	76	96	7
TAP	76	192	2
STR	76	192	5
SCL	76	192	5	96	48	2
TAP	76	288	0
STR	77	0	3
SF_	77	0	3	96	48	7
STR	77	48	7
SF_	77	48	7	96	48	3
TAP	77	240	6
TAP	77	288	5
TAP	77	336	4
BRK	78	0	3
TAP	78	24	2
TAP	78	48	1
TAP	78	72	0
TAP	78	96	7
TAP	78	120	6
TAP	78	144	5
TAP	78	168	4
BRK	78	192	3
TAP	78	216	2
TAP	78	240	1
TAP	78	264	0
BRK	78	288	7
TAP	78	312	6
TAP	78	336	5
TAP	78	360	4
BRK	79	0	3
TAP	79	12	2
TAP	79	24	1
TAP	79	36	0
BRK	79	48	7
TAP	79	60	6
TAP	79	72	5
TAP	79	84	4
BRK	79	96	3
TAP	79	108	2
BRK	79	120	1
TAP	79	132	0
BRK	79	144	7
TAP	79	156	6
BRK	79	168	5
TAP	79	180	4
BRK	79	192	3
BRK	79	204	2
BRK	79	216	1
BRK	79	228	0
BRK	79	240	7
BRK	79	252	6
BRK	79	264	5
BRK	79	276	4
BRK	79	288	3
HLD	80	0	0	264
HLD	80	0	4	0
HLD	80	192	1	0
HLD	80	264	7	0
TAP	81	0	0
TAP	81	24	7
TAP	81	48	0
TAP	81	72	7
TAP	81	96	2
TAP	81	120	5
TAP	81	144	2
TAP	81	168	5
STR	81	192	0
SF_	81	192	0	96	48	4
BRK	81	288	0
TAP	82	0	0
TAP	82	24	7
TAP	82	48	2
TAP	82	72	5
TAP	82	96	0
TAP	82	120	7
TAP	82	144	2
TAP	82	168	5
STR	82	192	0
SF_	82	192	0	96	48	4
BRK	82	288	0
TAP	83	0	0
TAP	83	24	7
TAP	83	48	0
TAP	83	72	5
TAP	83	96	0
TAP	83	120	4
TAP	83	144	0
TAP	83	168	3
STR	83	192	0
SF_	83	192	0	96	48	4
BRK	83	288	0
TAP	84	0	0
TAP	84	24	6
TAP	84	48	0
TAP	84	72	4
TAP	84	96	0
TAP	84	120	5
TAP	84	144	0
TAP	84	168	2
STR	84	192	0
SF_	84	192	0	96	48	4
BRK	84	288	0
TAP	85	0	0
TAP	85	24	7
TAP	85	48	3
TAP	85	72	5
TAP	85	96	2
TAP	85	120	4
TAP	85	144	1
TAP	85	168	3
STR	85	192	0
SF_	85	192	0	96	48	4
BRK	85	288	0
TAP	86	0	0
TAP	86	24	7
TAP	86	48	1
TAP	86	72	4
TAP	86	96	3
TAP	86	120	6
TAP	86	144	1
TAP	86	168	3
STR	86	192	0
SF_	86	192	0	96	48	4
BRK	86	288	0
TAP	87	0	0
TAP	87	24	4
TAP	87	48	2
TAP	87	72	6
TAP	87	96	3
TAP	87	120	7
TAP	87	144	2
TAP	87	168	3
STR	87	192	0
SF_	87	192	0	96	48	4
BRK	87	288	0
TAP	88	0	0
TAP	88	24	0
TAP	88	48	0
TAP	88	72	0
TAP	88	96	0
TAP	88	120	0
TAP	88	144	0
TAP	88	168	0
STR	88	192	0
SF_	88	192	0	96	48	4
TAP	88	204	7
TAP	88	216	6
TAP	88	228	5
TAP	88	240	4
TAP	88	252	3
TAP	88	264	2
TAP	88	276	1
BRK	88	288	0
BRK	89	0	2
BRK	89	0	6
STR	90	0	1
SXR	90	0	1	96	480	4
STR	90	0	6
SXL	90	0	6	96	480	3

T_REC_TAP	591
T_REC_BRK	87
T_REC_XTP	0
T_REC_HLD	33
T_REC_XHO	0
T_REC_STR	121
T_REC_BST	0
T_REC_XST	0
T_REC_TTP	0
T_REC_THO	0
T_REC_SLD	124
T_REC_ALL	956
T_NUM_TAP	712
T_NUM_BRK	87
T_NUM_HLD	33
T_NUM_SLD	124
T_NUM_ALL	956
T_JUDGE_TAP	799
T_JUDGE_HLD	77
T_JUDGE_SLD	124
T_JUDGE_ALL	1000
TTM_EACHPAIRS	156
TTM_SCR_TAP	356000
TTM_SCR_BRK	226200
TTM_SCR_HLD	33000
TTM_SCR_SLD	186000
TTM_SCR_ALL	801200
TTM_SCR_S	768750
TTM_SCR_SS	792500
TTM_RAT_ACV	10109

