VERSION	0.00.00	1.03.00
FES_MODE	0
BPM_DEF	165.000	165.000	165.000	165.000
MET_DEF	4	4
RESOLUTION	384
CLK_DEF	384
COMPATIBLE_CODE	MA2

BPM	0	0	165.000

STR	1	0	0
SF_	1	0	0	96	192	4
TAP	2	0	6
TAP	2	48	6
TAP	2	96	4
TAP	2	192	3
TAP	2	192	6
TAP	2	288	1
TAP	2	288	3
TAP	3	0	1
TAP	3	0	7
STR	3	96	2
SI_	3	96	2	96	48	7
TAP	3	96	4
TAP	3	192	6
TAP	3	288	0
TAP	3	288	5
TAP	4	0	2
TAP	4	48	2
TAP	4	96	3
TAP	4	192	2
TAP	4	192	4
TAP	4	288	4
TAP	4	288	6
TAP	5	0	0
TAP	5	0	6
TAP	5	96	3
STR	5	96	5
SI_	5	96	5	96	48	0
TAP	5	192	1
TAP	5	288	2
TAP	5	288	7
TAP	6	0	5
TAP	6	48	5
TAP	6	96	4
TAP	6	192	3
TAP	6	192	6
TAP	6	288	0
TAP	6	288	3
TAP	7	0	0
TAP	7	0	1
TAP	7	96	3
STR	7	96	4
SI_	7	96	4	96	48	0
TAP	7	192	1
TAP	7	288	2
TAP	7	288	7
TAP	8	0	2
TAP	8	48	2
TAP	8	96	3
TAP	8	192	1
TAP	8	192	4
TAP	8	288	4
TAP	8	288	7
TAP	9	0	0
TAP	9	0	7
STR	9	96	1
SI_	9	96	1	96	72	4
SI_	9	96	1	96	72	6
HLD	10	0	6	96
STR	10	96	0
SI_	10	96	0	96	72	4
TAP	11	0	2
TAP	11	0	4
TAP	11	96	0
TAP	11	96	6
TAP	11	192	7
TAP	11	240	7
TAP	11	288	0
TAP	11	288	6
TAP	12	0	1
TAP	12	0	7
TAP	12	96	3
TAP	12	96	5
TAP	12	192	4
TAP	12	240	4
TAP	12	288	3
TAP	12	288	5
TAP	13	0	2
TAP	13	0	4
TAP	13	96	1
TAP	13	96	7
TAP	13	192	6
TAP	13	240	7
TAP	13	288	0
TAP	13	288	5
TAP	14	0	3
TAP	14	0	5
TAP	14	96	0
TAP	14	96	6
TAP	14	192	1
TAP	14	240	0
TAP	14	288	2
TAP	14	288	7
TAP	15	0	1
TAP	15	0	4
TAP	15	96	1
TAP	15	96	7
TAP	15	192	6
TAP	15	240	7
TAP	15	288	0
TAP	15	288	5
TAP	16	0	0
TAP	16	0	6
TAP	16	96	3
TAP	16	96	6
TAP	16	192	1
TAP	16	240	0
TAP	16	288	2
TAP	16	288	7
TAP	17	0	6
TAP	17	48	4
TAP	17	96	3
TAP	17	96	7
TAP	17	192	2
TAP	17	240	0
TAP	17	288	3
TAP	17	288	7
TAP	18	0	1
TAP	18	48	5
TAP	18	96	3
TAP	18	96	7
STR	18	192	4
SI_	18	192	4	96	48	7
BRK	18	288	0
TAP	19	0	0
TAP	19	48	1
TAP	19	96	7
TAP	19	144	6
TAP	19	192	2
TAP	19	240	3
TAP	19	288	5
TAP	19	336	4
TAP	20	0	1
TAP	20	48	2
TAP	20	96	3
TAP	20	144	4
STR	20	192	5
SI_	20	192	5	96	48	0
BRK	20	288	1
TAP	21	0	0
TAP	21	0	1
TAP	21	48	2
TAP	21	96	0
TAP	21	144	7
TAP	21	192	0
TAP	21	192	6
TAP	21	240	5
TAP	21	288	0
TAP	21	336	1
TAP	22	0	2
TAP	22	0	6
TAP	22	48	3
TAP	22	96	5
TAP	22	144	4
TAP	22	192	2
TAP	22	192	3
BRK	22	288	0
BRK	22	288	6
HLD	23	0	5	384
TAP	23	96	4
TAP	23	192	3
TAP	23	288	4
STR	24	0	2
SXL	24	0	2	96	216	5
HLD	25	0	6	96
TAP	25	96	4
HLD	25	192	1	96
TAP	25	288	3
HLD	26	0	4	96
HLD	26	96	3	96
TAP	26	192	2
TAP	26	288	1
TAP	26	288	4
HLD	27	0	2	384
TAP	27	96	3
TAP	27	192	4
TAP	27	288	3
STR	28	0	5
SCR	28	0	5	96	192	2
HLD	29	0	1	96
TAP	29	96	3
HLD	29	192	6	96
TAP	29	288	4
BRK	30	0	4
BRK	30	0	6
BRK	30	96	4
BRK	30	192	3
BRK	30	288	1
BRK	30	288	3
TAP	31	0	2
TAP	31	0	3
TAP	31	96	2
TAP	31	96	4
TAP	31	192	3
TAP	31	192	4
TAP	31	288	3
TAP	31	288	5
STR	32	0	5
SV_	32	0	5	96	96	3
SV_	32	0	5	96	96	7
TAP	32	288	1
HLD	33	0	1	96
TAP	33	96	2
HLD	33	192	6	96
TAP	33	288	5
TAP	34	0	0
STR	34	0	7
SI_	34	0	7	96	48	4
TAP	34	96	3
TAP	34	192	2
TAP	34	240	3
TAP	34	288	1
TAP	34	288	4
TAP	35	0	4
TAP	35	0	5
TAP	35	96	3
TAP	35	96	5
TAP	35	192	3
TAP	35	192	4
TAP	35	288	2
TAP	35	288	4
STR	36	0	2
SCL	36	0	2	96	144	6
SUL	36	0	2	96	144	5
TAP	37	0	7
TAP	37	96	4
TAP	37	96	5
TAP	37	192	2
TAP	37	192	3
TAP	37	288	0
TAP	37	336	0
TAP	38	48	1
TAP	38	48	7
STR	38	144	2
SI_	38	144	2	96	72	6
TAP	38	144	6
STR	39	0	4
SI_	39	0	4	96	48	7
TAP	39	0	5
TAP	39	192	2
STR	39	192	3
SI_	39	192	3	96	48	0
TAP	40	0	6
TAP	40	0	7
TAP	40	96	5
TAP	40	192	4
TAP	40	240	4
TAP	40	288	1
TAP	40	288	3
TAP	41	0	6
STR	41	0	7
SI_	41	0	7	96	48	4
STR	41	192	0
SI_	41	192	0	96	48	3
TAP	41	192	1
TAP	42	0	4
TAP	42	0	5
TAP	42	96	6
TAP	42	192	7
TAP	42	240	0
TAP	42	288	1
TAP	42	288	6
TAP	43	0	6
TAP	43	48	6
TAP	43	96	4
STR	43	96	5
SLL	43	96	5	96	120	7
TAP	43	288	0
TAP	44	0	1
TAP	44	48	1
STR	44	96	2
SLR	44	96	2	96	120	0
TAP	44	96	3
TAP	44	288	7
STR	45	0	6
SI_	45	0	6	96	48	1
TAP	45	0	7
TAP	45	96	0
STR	45	192	2
SI_	45	192	2	96	48	5
TAP	45	192	3
TAP	45	288	4
HLD	46	0	6	96
HLD	46	96	4	96
TAP	46	192	3
BRK	46	288	1
BRK	46	288	6
HLD	47	0	2	192
STR	47	96	1
SI_	47	96	1	96	96	6
TAP	48	0	5
TAP	48	48	5
TAP	48	96	4
TAP	48	192	3
TAP	48	192	5
TAP	48	288	1
TAP	48	288	3
STR	49	0	1
SLR	49	0	1	96	144	7
TAP	49	0	7
STR	49	96	4
SI_	49	96	4	96	48	6
TAP	49	288	0
TAP	49	288	5
TAP	50	0	4
HLD	50	0	6	96
TAP	50	96	0
HLD	50	192	2	96
TAP	50	192	4
TAP	50	288	0
TAP	51	0	0
STR	51	0	7
SLR	51	0	7	96	144	6
TAP	51	96	2
BRK	51	288	0
STR	52	0	5
SI_	52	0	5	96	48	0
TAP	52	96	4
STR	52	192	3
SI_	52	192	3	96	48	0
TAP	52	288	4
STR	53	0	0
SUR	53	0	0	96	120	5
STR	53	0	1
SCR	53	0	1	96	120	4
TAP	53	288	3
TAP	53	288	6
STR	54	0	1
SI_	54	0	1	96	48	6
STR	54	0	2
SI_	54	0	2	96	48	5
STR	54	192	1
SI_	54	192	1	96	48	5
STR	54	192	2
SI_	54	192	2	96	48	6
STR	55	0	7
SF_	55	0	7	96	96	3
TAP	55	288	1
TAP	55	288	5
TAP	56	0	2
TAP	56	48	2
TAP	56	96	3
TAP	56	192	2
TAP	56	192	4
TAP	56	288	4
TAP	56	288	6
TAP	57	0	0
STR	57	0	6
SLL	57	0	6	96	144	0
STR	57	96	3
SI_	57	96	3	96	48	1
TAP	57	288	2
TAP	57	288	7
TAP	58	0	5
TAP	58	48	5
TAP	58	96	4
TAP	58	192	3
TAP	58	192	5
TAP	58	288	1
TAP	58	288	3
STR	59	0	1
SLL	59	0	1	96	144	3
STR	59	0	5
SLR	59	0	5	96	144	3
HLD	60	0	1	96
TAP	60	0	3
TAP	60	96	7
TAP	60	192	3
HLD	60	192	5	96
TAP	60	288	7
STR	61	0	0
SF_	61	0	0	96	96	4
TAP	61	288	2
TAP	61	288	6
BST	62	0	3
SI_	62	0	3	96	48	0
BST	62	0	7
SI_	62	0	7	96	48	4
BST	62	192	0
SCR	62	192	0	96	48	3
BST	62	192	4
SCR	62	192	4	96	48	7
BST	63	0	3
SLL	63	0	3	96	192	6
BST	63	0	7
SLL	63	0	7	96	192	2
HLD	64	0	1	72
TAP	64	72	0
TAP	64	144	7
HLD	64	192	6	72
TAP	64	264	7
TAP	64	336	0
HLD	65	0	1	96
HLD	65	0	5	96
STR	65	192	2
SI_	65	192	2	96	48	6
STR	65	192	3
SI_	65	192	3	96	48	7
TAP	66	0	1
TAP	66	0	3
TAP	66	48	2
TAP	66	96	4
TAP	66	144	3
TAP	66	192	4
TAP	66	192	6
TAP	66	240	5
TAP	66	288	3
TAP	66	336	4
TAP	67	0	3
TAP	67	48	2
TAP	67	96	4
TAP	67	144	5
TAP	67	192	1
TAP	67	240	2
TAP	67	288	6
TAP	67	336	5
TAP	68	0	1
TAP	68	0	4
TAP	68	48	0
TAP	68	96	7
TAP	68	144	6
TAP	68	192	2
TAP	68	192	5
TAP	68	240	1
TAP	68	288	0
TAP	68	288	4
TAP	68	336	5
TAP	69	0	3
TAP	69	0	6
TAP	69	48	7
TAP	69	96	0
TAP	69	144	1
TAP	69	192	2
TAP	69	192	5
TAP	69	240	6
TAP	69	288	2
TAP	69	288	7
TAP	69	336	1
TAP	70	0	0
TAP	70	0	7
TAP	70	48	0
TAP	70	48	7
TAP	70	96	0
TAP	70	96	7
TAP	70	144	0
TAP	70	144	7
TAP	70	192	7
TAP	70	216	0
TAP	70	240	7
TAP	70	264	0
TAP	70	288	7
TAP	70	312	0
TAP	70	336	7
TAP	70	360	0
STR	71	0	7
SF_	71	0	7	96	120	3
BRK	71	288	1
BRK	71	288	5
TAP	72	0	5
TAP	72	48	4
TAP	72	96	3
TAP	72	96	6
TAP	72	192	0
TAP	72	192	3
TAP	72	288	3
TAP	72	288	6
STR	73	0	6
SLL	73	0	6	96	144	0
STR	73	96	3
SI_	73	96	3	96	48	1
TAP	73	288	3
TAP	73	288	7
TAP	74	0	2
TAP	74	48	3
TAP	74	96	1
TAP	74	96	4
TAP	74	192	4
TAP	74	192	7
TAP	74	288	1
TAP	74	288	4
STR	75	0	1
SLL	75	0	1	96	144	2
STR	75	0	5
SLR	75	0	5	96	144	4
TAP	76	0	4
HLD	76	0	6	96
TAP	76	96	0
HLD	76	192	1	96
TAP	76	192	3
TAP	76	288	7
STR	77	0	7
SF_	77	0	7	96	96	3
TAP	77	288	1
TAP	77	288	5
BST	78	0	0
SI_	78	0	0	96	48	3
BST	78	0	3
SI_	78	0	3	96	48	6
BST	78	192	4
SCL	78	192	4	96	48	1
BST	78	192	7
SCL	78	192	7	96	48	4
BST	79	0	0
SLR	79	0	0	96	192	4
BST	79	0	4
SLR	79	0	4	96	192	0
HLD	80	0	6	96
STR	80	96	0
SI_	80	96	0	96	48	4
HLD	81	0	3	96
STR	81	96	2
SXL	81	96	2	96	144	5
HLD	82	0	4	96
STR	82	96	5
SXR	82	96	5	96	144	2
HLD	83	0	1	96
STR	83	96	2
SUR	83	96	2	96	144	5
HLD	84	0	6	96
STR	84	96	5
SUL	84	96	5	96	144	2
HLD	85	0	1	96
STR	85	96	2
SXR	85	96	2	96	144	4
HLD	86	0	6	96
STR	86	96	5
SXL	86	96	5	96	144	3
HLD	87	0	2	96
STR	87	96	1
SXR	87	96	1	96	144	4
HLD	88	0	5	96
STR	88	96	7
SXL	88	96	7	96	144	3
SXR	88	96	7	96	144	3
HLD	89	0	0	384
HLD	89	0	7	768

T_REC_TAP	345
T_REC_BRK	15
T_REC_XTP	0
T_REC_HLD	35
T_REC_XHO	0
T_REC_STR	57
T_REC_BST	12
T_REC_XST	0
T_REC_TTP	0
T_REC_THO	0
T_REC_SLD	73
T_REC_ALL	537
T_NUM_TAP	402
T_NUM_BRK	27
T_NUM_HLD	35
T_NUM_SLD	73
T_NUM_ALL	537
T_JUDGE_TAP	429
T_JUDGE_HLD	104
T_JUDGE_SLD	73
T_JUDGE_ALL	606
TTM_EACHPAIRS	129
TTM_SCR_TAP	201000
TTM_SCR_BRK	70200
TTM_SCR_HLD	35000
TTM_SCR_SLD	109500
TTM_SCR_ALL	415700
TTM_SCR_S	400650
TTM_SCR_SS	413000
TTM_RAT_ACV	10065

