VERSION	0.00.00	1.03.00
FES_MODE	0
BPM_DEF	165.000	165.000	165.000	165.000
MET_DEF	4	4
RESOLUTION	384
CLK_DEF	384
COMPATIBLE_CODE	MA2

BPM	0	0	165.000

TAP	2	0	2
TAP	2	96	3
TAP	2	192	4
TAP	2	288	5
TAP	3	0	4
TAP	3	0	5
TAP	3	96	3
TAP	3	96	4
TAP	3	192	2
TAP	3	192	5
TAP	4	0	5
TAP	4	96	4
TAP	4	192	3
TAP	4	288	2
TAP	5	0	2
TAP	5	0	3
TAP	5	96	3
TAP	5	96	4
TAP	5	192	2
TAP	5	192	5
TAP	6	0	2
TAP	6	96	3
TAP	6	192	4
TAP	6	288	5
TAP	7	0	4
TAP	7	0	5
TAP	7	96	2
TAP	7	96	3
TAP	7	192	1
TAP	7	192	4
TAP	8	0	2
TAP	8	96	3
TAP	8	192	5
TAP	8	288	4
TAP	9	0	3
TAP	9	0	4
TAP	9	96	2
TAP	9	96	5
TAP	9	192	1
TAP	9	192	6
STR	9	288	0
SI_	9	288	0	96	192	3
STR	9	288	7
SI_	9	288	7	96	192	4
HLD	11	0	2	96
TAP	11	96	3
TAP	11	192	1
TAP	11	192	4
HLD	12	0	5	96
TAP	12	96	4
TAP	12	192	3
TAP	12	192	6
HLD	13	0	1	96
TAP	13	96	0
BRK	13	192	2
BRK	13	192	7
HLD	14	0	6	96
TAP	14	96	7
BRK	14	192	0
BRK	14	192	5
HLD	15	0	5	192
TAP	15	96	4
TAP	15	192	4
TAP	15	288	3
TAP	15	288	4
HLD	16	0	2	192
TAP	16	96	3
TAP	16	192	3
TAP	16	288	1
TAP	16	288	4
TAP	17	0	0
TAP	17	96	0
TAP	17	192	7
TAP	17	288	7
TAP	18	0	0
TAP	18	0	7
TAP	18	96	1
TAP	18	96	6
BRK	18	192	2
BRK	18	192	5
TAP	19	0	1
TAP	19	96	2
TAP	19	192	2
TAP	19	192	3
TAP	19	288	2
TAP	19	288	3
TAP	20	0	4
TAP	20	96	5
TAP	20	192	3
TAP	20	192	6
HLD	21	0	4	96
HLD	21	0	5	96
HLD	21	192	2	96
HLD	21	192	3	96
TAP	22	0	3
TAP	22	0	4
TAP	22	96	2
TAP	22	96	5
BRK	22	192	1
BRK	22	192	6
TAP	23	0	2
TAP	23	96	2
TAP	23	192	2
TAP	23	192	3
TAP	24	0	5
TAP	24	96	5
TAP	24	192	4
TAP	24	192	5
TAP	25	0	2
TAP	25	96	2
TAP	25	192	3
TAP	25	288	3
TAP	26	0	4
TAP	26	96	3
TAP	26	192	2
TAP	26	192	5
TAP	27	0	0
TAP	27	96	1
TAP	27	192	2
TAP	27	192	3
TAP	28	0	4
TAP	28	96	5
TAP	28	192	6
TAP	28	192	7
TAP	29	0	7
TAP	29	96	6
TAP	29	192	4
TAP	29	192	5
TAP	30	0	2
TAP	30	0	3
TAP	30	96	2
TAP	30	96	3
TAP	30	192	1
TAP	30	192	4
TAP	31	0	5
TAP	31	96	5
TAP	31	192	4
TAP	31	192	6
TAP	32	0	2
TAP	32	96	2
TAP	32	192	1
TAP	32	192	3
TAP	33	0	5
TAP	33	96	5
TAP	33	192	4
TAP	33	288	4
TAP	34	0	3
TAP	34	96	2
HLD	34	192	1	96
HLD	34	192	4	96
TAP	35	0	3
TAP	35	96	2
TAP	35	192	1
STR	35	288	0
SUR	35	288	0	96	240	5
TAP	37	0	7
TAP	37	96	6
HLD	37	192	5	96
TAP	37	288	4
TAP	37	336	4
TAP	38	48	3
TAP	38	48	4
TAP	38	144	2
TAP	38	144	5
TAP	38	240	1
TAP	38	240	6
BRK	38	288	1
BRK	38	288	6
STR	39	0	2
SI_	39	0	2	96	144	5
STR	40	0	6
SI_	40	0	6	96	144	1
STR	41	0	2
SI_	41	0	2	96	144	6
STR	42	0	5
SI_	42	0	5	96	144	1
HLD	43	0	2	192
TAP	43	192	3
TAP	43	288	1
TAP	43	288	4
HLD	44	0	5	192
TAP	44	192	4
TAP	44	288	3
TAP	44	288	6
TAP	45	0	4
TAP	45	96	4
TAP	45	192	3
TAP	45	288	3
TAP	46	0	3
TAP	46	0	4
TAP	46	96	3
TAP	46	96	4
TAP	46	192	2
TAP	46	192	5
BST	46	288	1
SLR	46	288	1	96	240	0
BST	46	288	6
SLL	46	288	6	96	240	7
TAP	48	0	2
TAP	48	96	1
TAP	48	96	3
TAP	48	192	5
TAP	48	288	4
TAP	48	288	6
TAP	49	0	2
TAP	49	0	3
TAP	49	96	4
TAP	49	96	5
TAP	49	192	1
TAP	49	192	3
TAP	49	288	3
TAP	49	288	4
TAP	50	0	6
TAP	50	96	6
TAP	50	96	7
TAP	50	192	1
TAP	50	288	0
TAP	50	288	1
TAP	51	0	7
TAP	51	96	6
BRK	51	192	0
BRK	51	192	5
HLD	52	0	1	96
HLD	52	0	3	96
TAP	52	192	1
TAP	52	192	3
TAP	52	288	2
HLD	53	0	3	96
HLD	53	0	4	96
TAP	53	192	3
TAP	53	192	4
TAP	53	288	5
HLD	54	0	4	96
HLD	54	0	6	96
TAP	54	192	4
TAP	54	192	6
BST	54	288	7
SSR	54	288	7	96	288	3
TAP	56	0	0
TAP	56	0	1
TAP	56	96	2
TAP	56	96	7
TAP	56	192	6
TAP	56	192	7
TAP	56	288	0
TAP	56	288	5
TAP	57	0	0
TAP	57	0	1
TAP	57	96	2
TAP	57	96	7
TAP	57	192	3
TAP	57	192	6
TAP	58	0	4
TAP	58	0	5
TAP	58	96	3
TAP	58	96	6
TAP	58	192	2
TAP	58	192	3
TAP	58	288	1
TAP	58	288	4
TAP	59	0	0
TAP	59	0	7
TAP	59	96	0
TAP	59	96	7
BRK	59	192	1
BRK	59	192	6
HLD	60	0	4	96
HLD	60	0	5	96
TAP	60	192	4
TAP	60	192	5
TAP	60	288	3
TAP	60	288	6
HLD	61	0	2	96
HLD	61	0	3	96
TAP	61	192	2
TAP	61	192	3
TAP	61	288	1
TAP	61	288	4
BRK	62	0	0
BRK	62	96	0
BRK	62	192	1
BST	62	288	0
SI_	62	288	0	96	144	5
BST	62	288	1
SI_	62	288	1	96	144	4
TAP	63	288	3
TAP	63	288	6
TAP	64	0	7
TAP	64	96	6
TAP	64	192	5
STR	64	288	4
SI_	64	288	4	96	144	0
TAP	65	288	1
TAP	65	288	7
TAP	66	0	0
TAP	66	96	1
TAP	66	192	2
STR	66	288	3
SI_	66	288	3	96	144	7
TAP	67	288	0
TAP	67	288	6
TAP	68	0	2
TAP	68	96	1
TAP	68	96	3
TAP	68	192	4
TAP	68	288	3
TAP	68	288	4
TAP	69	0	5
TAP	69	96	4
TAP	69	96	6
TAP	69	192	7
STR	69	288	0
SXL	69	288	0	96	288	3
STR	69	288	7
SXR	69	288	7	96	288	4
HLD	71	0	5	192
TAP	71	192	4
BRK	71	288	1
BRK	71	288	7
TAP	72	0	2
TAP	72	96	1
TAP	72	96	3
TAP	72	192	5
TAP	72	288	4
TAP	72	288	6
TAP	73	0	1
TAP	73	0	3
TAP	73	96	3
TAP	73	96	4
TAP	73	192	4
TAP	73	192	6
TAP	74	0	6
TAP	74	96	5
TAP	74	96	7
TAP	74	192	1
TAP	74	288	0
TAP	74	288	2
TAP	75	0	3
TAP	75	0	4
TAP	75	96	5
TAP	75	96	7
BRK	75	192	1
BRK	75	192	6
HLD	76	0	4	96
HLD	76	0	6	96
TAP	76	192	4
TAP	76	192	6
TAP	76	288	7
HLD	77	0	0	96
HLD	77	0	7	96
TAP	77	192	0
TAP	77	192	7
TAP	77	288	0
TAP	77	288	7
BRK	78	0	1
BRK	78	96	1
BRK	78	192	2
BST	78	288	2
SI_	78	288	2	96	144	7
BST	78	288	3
SI_	78	288	3	96	144	6
STR	79	288	4
SUR	79	288	4	96	240	3
STR	79	288	5
SCR	79	288	5	96	240	2
TAP	81	0	0
TAP	81	0	1
TAP	81	96	0
TAP	81	96	1
TAP	81	192	2
TAP	81	192	3
BRK	81	288	4
BRK	81	288	6
TAP	82	0	0
TAP	82	0	1
TAP	82	96	0
TAP	82	96	1
TAP	82	192	2
TAP	82	192	3
BRK	82	288	4
BRK	82	288	6
TAP	83	0	0
TAP	83	0	1
TAP	83	96	0
TAP	83	96	1
TAP	83	192	2
TAP	83	192	3
BRK	83	288	4
BRK	83	288	6
TAP	84	0	0
TAP	84	0	1
TAP	84	96	0
TAP	84	96	1
TAP	84	192	2
TAP	84	192	3
BRK	84	288	4
BRK	84	288	6
TAP	85	0	0
TAP	85	0	7
TAP	85	96	1
TAP	85	96	2
TAP	85	192	4
TAP	85	192	5
BRK	85	288	3
BRK	85	288	6
TAP	86	0	0
TAP	86	0	7
TAP	86	96	1
TAP	86	96	2
TAP	86	192	4
TAP	86	192	5
BRK	86	288	3
BRK	86	288	6
TAP	87	0	0
TAP	87	0	7
TAP	87	96	1
TAP	87	96	2
TAP	87	192	4
TAP	87	192	5
BRK	87	288	3
BRK	87	288	6
TAP	88	0	0
TAP	88	0	7
TAP	88	96	1
TAP	88	96	3
TAP	88	192	4
TAP	88	192	6
BST	88	288	7
SF_	88	288	7	96	384	3
BRK	91	144	7

T_REC_TAP	319
T_REC_BRK	39
T_REC_XTP	0
T_REC_HLD	30
T_REC_XHO	0
T_REC_STR	13
T_REC_BST	8
T_REC_XST	0
T_REC_TTP	0
T_REC_THO	0
T_REC_SLD	21
T_REC_ALL	430
T_NUM_TAP	332
T_NUM_BRK	47
T_NUM_HLD	30
T_NUM_SLD	21
T_NUM_ALL	430
T_JUDGE_TAP	379
T_JUDGE_HLD	70
T_JUDGE_SLD	21
T_JUDGE_ALL	470
TTM_EACHPAIRS	144
TTM_SCR_TAP	166000
TTM_SCR_BRK	122200
TTM_SCR_HLD	30000
TTM_SCR_SLD	31500
TTM_SCR_ALL	349700
TTM_SCR_S	334650
TTM_SCR_SS	345000
TTM_RAT_ACV	10136

