VERSION	0.00.00	1.03.00
FES_MODE	0
BPM_DEF	165.000	165.000	165.000	165.000
MET_DEF	4	4
RESOLUTION	384
CLK_DEF	384
COMPATIBLE_CODE	MA2

BPM	0	0	165.000
MET	0	0	4	4

TAP	2	0	5
TAP	3	0	3
TAP	3	0	4
TAP	4	0	2
TAP	5	0	3
TAP	5	0	4
TAP	5	192	3
TAP	5	192	4
TAP	6	0	4
TAP	6	192	4
TAP	7	0	5
TAP	7	192	5
TAP	8	0	6
TAP	8	192	6
TAP	9	0	7
TAP	9	192	0
TAP	9	192	7
HLD	10	0	0	192
HLD	10	0	7	192
STR	11	0	0
SI_	11	0	0	96	288	3
STR	13	0	7
SI_	13	0	7	96	288	4
STR	15	0	3
SI_	15	0	3	96	288	0
STR	17	0	4
SI_	17	0	4	96	288	7
BRK	18	192	0
BRK	18	192	7
TAP	19	0	0
TAP	19	192	0
TAP	20	0	1
TAP	20	96	1
TAP	20	192	1
TAP	21	0	2
TAP	21	192	2
TAP	22	0	3
TAP	22	96	3
TAP	22	192	3
TAP	22	192	4
HLD	23	0	2	192
TAP	24	0	2
TAP	24	192	2
TAP	24	192	3
HLD	25	0	4	192
TAP	26	0	4
TAP	26	192	4
TAP	26	192	5
HLD	27	0	5	192
TAP	28	0	5
TAP	28	192	4
TAP	28	192	5
HLD	29	0	3	192
TAP	30	0	3
TAP	30	192	3
TAP	30	192	4
TAP	31	0	3
TAP	31	192	3
TAP	32	0	2
TAP	32	192	2
TAP	32	192	3
TAP	33	0	1
TAP	33	192	1
TAP	34	0	0
TAP	34	192	0
TAP	34	192	1
TAP	35	0	7
TAP	35	192	7
TAP	36	0	6
TAP	36	192	6
TAP	36	192	7
TAP	37	0	5
TAP	37	192	5
TAP	38	0	4
TAP	38	192	3
TAP	38	192	4
HLD	39	0	2	384
HLD	39	0	3	384
HLD	41	0	4	384
HLD	41	0	5	384
TAP	43	0	5
TAP	43	192	5
TAP	44	0	4
TAP	44	96	4
TAP	44	192	3
TAP	44	192	4
TAP	45	0	2
TAP	45	192	2
TAP	46	0	3
TAP	46	96	3
TAP	46	192	3
TAP	46	192	4
BRK	47	0	3
BRK	47	0	4
TAP	48	0	2
TAP	48	96	3
TAP	48	192	2
TAP	48	192	3
TAP	49	0	3
TAP	49	96	4
TAP	49	192	3
TAP	49	192	4
TAP	50	0	4
TAP	50	96	5
TAP	50	192	4
TAP	50	192	5
TAP	51	0	3
TAP	51	0	4
TAP	51	96	3
TAP	51	96	4
TAP	51	192	2
TAP	51	192	5
HLD	52	0	4	192
HLD	52	0	5	192
TAP	53	0	5
TAP	53	96	5
TAP	53	192	4
TAP	53	192	5
TAP	54	0	4
TAP	54	96	4
TAP	54	192	3
TAP	54	192	4
TAP	55	0	2
TAP	55	0	5
TAP	56	0	6
TAP	56	96	7
TAP	56	192	6
TAP	56	192	7
TAP	57	0	7
TAP	57	96	0
TAP	57	192	0
TAP	57	192	7
TAP	58	0	0
TAP	58	96	1
TAP	58	192	0
TAP	58	192	1
TAP	59	0	0
TAP	59	0	7
TAP	59	96	0
TAP	59	96	7
TAP	59	192	1
TAP	59	192	6
HLD	60	0	0	192
HLD	60	0	1	192
TAP	61	0	1
TAP	61	96	1
TAP	61	192	0
TAP	61	192	1
TAP	62	0	0
TAP	62	96	0
TAP	62	192	0
TAP	62	192	7
TAP	63	0	1
TAP	63	0	6
TAP	64	0	2
TAP	64	192	2
TAP	65	0	3
TAP	65	96	3
TAP	65	192	3
TAP	66	0	4
TAP	66	192	4
TAP	67	0	5
TAP	67	96	5
TAP	67	192	5
TAP	68	0	6
TAP	68	192	6
TAP	69	0	7
TAP	69	96	7
TAP	69	192	7
TAP	70	0	0
TAP	70	192	0
TAP	71	0	1
TAP	71	96	1
BRK	71	192	1
TAP	72	0	2
TAP	72	96	3
TAP	72	192	2
TAP	72	192	3
TAP	73	0	3
TAP	73	96	4
TAP	73	192	3
TAP	73	192	4
TAP	74	0	4
TAP	74	96	5
TAP	74	192	4
TAP	74	192	5
TAP	75	0	3
TAP	75	0	4
TAP	75	96	3
TAP	75	96	4
TAP	75	192	2
TAP	75	192	5
HLD	76	0	4	192
HLD	76	0	5	192
TAP	77	0	5
TAP	77	96	5
TAP	77	192	4
TAP	77	192	5
TAP	78	0	4
TAP	78	96	4
TAP	78	192	3
TAP	78	192	4
TAP	79	0	2
TAP	79	0	5
BRK	80	0	3
BRK	80	0	4
TAP	81	0	3
TAP	81	96	3
TAP	81	192	3
TAP	82	0	2
TAP	82	96	2
TAP	82	192	2
TAP	83	0	1
TAP	83	96	1
TAP	83	192	1
TAP	84	0	0
TAP	84	96	7
TAP	84	192	0
TAP	84	192	7
TAP	85	0	7
TAP	85	96	7
TAP	85	192	7
TAP	86	0	6
TAP	86	96	6
TAP	86	192	6
TAP	87	0	5
TAP	87	96	5
TAP	87	192	5
TAP	88	0	4
TAP	88	96	3
TAP	88	192	3
TAP	88	192	4
BRK	89	0	3
BRK	89	0	4

T_REC_TAP	201
T_REC_BRK	9
T_REC_XTP	0
T_REC_HLD	16
T_REC_XHO	0
T_REC_STR	4
T_REC_BST	0
T_REC_XST	0
T_REC_TTP	0
T_REC_THO	0
T_REC_SLD	4
T_REC_ALL	234
T_NUM_TAP	205
T_NUM_BRK	9
T_NUM_HLD	16
T_NUM_SLD	4
T_NUM_ALL	234
T_JUDGE_TAP	214
T_JUDGE_HLD	80
T_JUDGE_SLD	4
T_JUDGE_ALL	298
TTM_EACHPAIRS	54
TTM_SCR_TAP	102500
TTM_SCR_BRK	23400
TTM_SCR_HLD	16000
TTM_SCR_SLD	6000
TTM_SCR_ALL	147900
TTM_SCR_S	142600
TTM_SCR_SS	147000
TTM_RAT_ACV	10061

