VERSION	0.00.00	1.03.00
FES_MODE	0
BPM_DEF	180.000	180.000	180.000	120.000
MET_DEF	4	4
RESOLUTION	384
CLK_DEF	384
COMPATIBLE_CODE	MA2

BPM	0	0	180.000
BPM	93	0	160.000
BPM	93	192	150.000
BPM	94	0	170.000
BPM	94	192	160.000
BPM	94	336	145.000
BPM	95	0	140.000
BPM	95	360	120.000

STR	1	0	1
SUR	1	0	1	96	192	4
TAP	1	0	6
TAP	1	288	7
TAP	2	0	7
TAP	2	96	6
TAP	2	192	5
TAP	2	288	4
STR	3	0	6
SUL	3	0	6	96	192	3
TAP	3	288	0
TAP	4	0	0
TAP	4	96	1
TAP	4	192	2
TAP	4	288	3
STR	5	0	4
SI_	5	0	4	96	288	0
STR	6	0	3
SI_	6	0	3	96	288	7
STR	7	0	4
SF_	7	0	4	96	288	0
TAP	10	48	1
TAP	10	96	6
TAP	10	144	6
STR	10	192	0
SI_	10	192	0	96	48	4
TAP	10	240	5
TAP	10	288	0
TAP	10	336	5
TAP	11	48	2
TAP	11	96	7
TAP	11	144	7
STR	11	192	1
SI_	11	192	1	96	48	5
TAP	11	240	6
TAP	11	288	1
TAP	11	336	6
TAP	12	48	6
TAP	12	96	1
TAP	12	144	1
STR	12	192	7
SI_	12	192	7	96	48	3
TAP	12	240	2
TAP	12	288	7
TAP	12	336	2
TAP	13	48	5
TAP	13	96	0
TAP	13	144	0
STR	13	192	6
SI_	13	192	6	96	48	2
TAP	13	240	1
TAP	13	288	6
TAP	13	336	1
TAP	14	48	1
TAP	14	96	5
TAP	14	144	5
STR	14	192	3
SI_	14	192	3	96	48	7
TAP	14	240	6
TAP	14	288	3
TAP	14	336	6
TAP	15	48	1
TAP	15	96	4
TAP	15	144	4
STR	15	192	2
SI_	15	192	2	96	48	6
TAP	15	240	5
TAP	15	288	2
TAP	15	336	5
TAP	16	48	5
TAP	16	96	2
TAP	16	144	2
STR	16	192	4
SI_	16	192	4	96	48	0
TAP	16	240	1
TAP	16	288	4
TAP	16	336	1
TAP	17	48	6
TAP	17	96	3
TAP	17	144	3
STR	17	192	5
SI_	17	192	5	96	48	1
TAP	17	240	2
TAP	17	288	5
TAP	17	336	2
TAP	18	48	2
TAP	18	96	7
TAP	18	144	7
STR	18	192	1
SI_	18	192	1	96	48	5
STR	18	240	5
SI_	18	240	5	96	48	2
TAP	18	288	1
TAP	18	336	6
TAP	19	48	5
TAP	19	96	0
TAP	19	144	0
STR	19	192	6
SI_	19	192	6	96	48	2
STR	19	240	2
SI_	19	240	2	96	48	5
TAP	19	288	6
TAP	19	336	1
TAP	20	48	1
TAP	20	96	6
TAP	20	144	6
STR	20	192	0
SI_	20	192	0	96	48	4
STR	20	240	4
SI_	20	240	4	96	48	1
TAP	20	288	0
TAP	20	336	5
TAP	21	48	6
TAP	21	96	1
TAP	21	144	1
STR	21	192	7
SI_	21	192	7	96	48	3
STR	21	240	3
SI_	21	240	3	96	48	6
TAP	21	288	7
TAP	21	336	2
TAP	22	48	1
TAP	22	96	6
TAP	22	144	6
STR	22	192	0
SI_	22	192	0	96	48	4
TAP	22	240	5
TAP	22	288	0
TAP	22	336	5
TAP	23	48	6
TAP	23	96	1
TAP	23	144	1
STR	23	192	7
SI_	23	192	7	96	48	3
TAP	23	240	2
TAP	23	288	7
TAP	23	336	1
TAP	24	0	0
TAP	24	24	7
TAP	24	48	0
TAP	24	72	7
TAP	24	96	0
TAP	24	120	7
TAP	24	144	0
TAP	24	168	7
TAP	24	192	0
TAP	24	216	7
TAP	24	240	0
TAP	24	264	7
TAP	24	288	0
TAP	24	312	7
TAP	24	336	0
TAP	24	360	7
TAP	25	0	0
TAP	25	12	1
TAP	25	24	2
TAP	25	36	3
TAP	25	48	4
TAP	25	60	5
TAP	25	72	6
TAP	25	84	7
TAP	25	96	0
TAP	25	108	1
TAP	25	120	2
TAP	25	132	3
TAP	25	144	4
TAP	25	156	5
TAP	25	168	6
TAP	25	180	7
TAP	25	192	0
TAP	25	204	1
TAP	25	216	2
TAP	25	228	3
TAP	25	240	4
TAP	25	252	5
TAP	25	264	6
TAP	25	276	7
TAP	25	288	0
TAP	25	300	1
TAP	25	312	2
TAP	25	324	3
TAP	25	336	4
TAP	25	348	5
TAP	25	360	6
TAP	25	372	7
BRK	26	0	0
TAP	26	288	1
TAP	26	336	7
HLD	27	0	1	288
TAP	27	288	6
TAP	27	336	0
HLD	28	0	6	288
TAP	28	288	1
TAP	28	336	7
HLD	29	0	2	192
HLD	29	192	0	192
HLD	30	0	7	384
HLD	31	0	5	192
HLD	31	192	0	192
STR	32	0	7
SF_	32	0	7	96	288	3
HLD	34	0	2	192
HLD	34	192	0	192
HLD	35	0	1	192
HLD	35	192	7	192
STR	36	0	0
SI_	36	0	0	96	288	4
HLD	37	0	7	192
HLD	37	192	5	192
HLD	38	0	4	288
HLD	38	288	0	48
HLD	38	336	7	48
HLD	39	0	0	192
HLD	39	192	2	192
STR	40	0	3
SF_	40	0	3	96	288	7
TAP	41	192	4
TAP	41	216	5
TAP	41	240	6
TAP	41	264	7
TAP	41	288	3
TAP	41	312	2
TAP	41	336	1
TAP	41	360	0
BRK	42	0	6
HLD	42	48	1	24
TAP	42	72	0
TAP	42	144	0
HLD	42	192	6	24
TAP	42	216	7
TAP	42	288	1
TAP	42	288	6
TAP	42	336	2
TAP	42	336	5
TAP	43	0	3
HLD	43	48	5	24
TAP	43	72	4
TAP	43	144	5
HLD	43	192	2	24
TAP	43	216	3
TAP	43	288	0
TAP	43	288	7
TAP	43	336	2
TAP	43	336	5
TAP	44	0	4
HLD	44	48	2	24
TAP	44	72	3
TAP	44	144	2
HLD	44	192	5	24
TAP	44	216	4
TAP	44	240	5
TAP	44	288	7
TAP	44	336	0
TAP	45	0	1
HLD	45	48	6	24
TAP	45	72	7
HLD	45	120	1	24
TAP	45	144	0
STR	45	192	0
SI_	45	192	0	96	48	4
STR	45	192	7
SI_	45	192	7	96	48	3
TAP	45	216	1
TAP	45	216	6
TAP	45	240	2
TAP	45	240	5
TAP	45	288	0
TAP	45	288	7
TAP	46	0	1
HLD	46	48	6	24
TAP	46	72	7
TAP	46	144	6
HLD	46	192	1	24
TAP	46	216	0
TAP	46	288	1
TAP	46	288	6
TAP	46	336	2
TAP	46	336	5
TAP	47	0	4
HLD	47	48	2	24
TAP	47	72	3
TAP	47	144	2
HLD	47	192	5	24
TAP	47	216	4
TAP	47	288	0
TAP	47	288	7
TAP	47	336	2
TAP	47	336	5
TAP	48	0	6
HLD	48	48	1	24
TAP	48	72	0
HLD	48	120	6	24
TAP	48	144	7
HLD	48	192	1	24
TAP	48	216	0
HLD	48	264	7	24
TAP	48	288	0
TAP	48	312	1
TAP	48	336	2
TAP	49	0	4
HLD	49	48	2	24
TAP	49	72	3
TAP	49	120	1
TAP	49	144	0
TAP	49	168	1
STR	49	192	7
SI_	49	192	7	96	48	3
TAP	49	240	1
TAP	49	288	7
TAP	49	336	0
TAP	50	0	1
HLD	50	48	6	24
TAP	50	72	7
TAP	50	144	6
HLD	50	192	1	24
TAP	50	216	0
TAP	50	288	1
TAP	50	288	6
TAP	50	336	2
TAP	50	336	5
TAP	51	0	4
HLD	51	48	2	24
TAP	51	72	3
TAP	51	144	2
HLD	51	192	5	24
TAP	51	216	4
TAP	51	240	5
TAP	51	288	0
STR	51	288	7
SI_	51	288	7	96	48	2
TAP	51	336	2
TAP	51	336	5
STR	52	0	0
SI_	52	0	0	96	48	5
TAP	52	48	0
STR	52	96	6
SI_	52	96	6	96	48	3
TAP	52	144	6
STR	52	192	1
SCR	52	192	1	96	48	4
TAP	52	264	1
TAP	52	288	7
TAP	52	312	6
TAP	52	336	5
TAP	53	0	2
TAP	53	48	3
TAP	53	48	5
TAP	53	72	2
TAP	53	72	6
TAP	53	96	1
TAP	53	96	7
TAP	53	144	0
STR	53	192	1
SI_	53	192	1	96	48	5
TAP	53	192	7
TAP	53	216	2
TAP	53	216	6
TAP	53	240	3
STR	53	240	5
SI_	53	240	5	96	48	2
TAP	53	288	1
TAP	54	0	6
HLD	54	48	0	24
TAP	54	72	7
TAP	54	144	0
HLD	54	192	7	24
TAP	54	216	0
TAP	54	288	1
TAP	54	288	6
TAP	54	336	2
TAP	54	336	5
TAP	55	0	3
HLD	55	48	4	24
TAP	55	72	3
TAP	55	144	4
HLD	55	192	3	24
TAP	55	216	4
TAP	55	240	3
HLD	55	288	4	24
TAP	55	312	3
TAP	55	336	4
TAP	56	0	7
HLD	56	48	1	24
TAP	56	72	0
HLD	56	120	6	24
TAP	56	144	7
TAP	56	192	0
TAP	56	192	7
TAP	56	216	1
TAP	56	216	6
TAP	56	240	2
TAP	56	240	5
TAP	56	288	3
TAP	56	288	4
TAP	56	312	2
TAP	56	312	5
TAP	56	336	1
TAP	56	336	6
TAP	57	0	0
HLD	57	48	6	24
TAP	57	72	7
HLD	57	120	1	24
TAP	57	144	0
TAP	57	192	0
TAP	57	192	7
TAP	57	216	1
TAP	57	216	6
TAP	57	240	2
TAP	57	240	5
BRK	57	288	0
TAP	58	0	4
TAP	58	24	2
TAP	58	48	4
TAP	58	72	2
TAP	58	96	3
TAP	58	120	1
TAP	58	144	3
TAP	58	168	1
TAP	58	192	7
TAP	58	216	6
TAP	58	240	5
TAP	58	264	4
TAP	58	288	0
TAP	58	312	1
TAP	58	336	2
TAP	58	360	3
TAP	59	0	5
TAP	59	24	3
TAP	59	48	5
TAP	59	72	3
TAP	59	96	4
TAP	59	120	2
TAP	59	144	4
TAP	59	168	2
TAP	59	192	6
TAP	59	216	5
TAP	59	240	4
TAP	59	264	3
TAP	59	288	7
TAP	59	312	0
TAP	59	336	1
TAP	59	360	2
TAP	60	0	4
TAP	60	24	3
TAP	60	48	5
TAP	60	72	2
TAP	60	96	6
TAP	60	120	1
TAP	60	144	7
TAP	60	168	0
TAP	60	192	7
TAP	60	216	6
TAP	60	240	5
TAP	60	264	4
TAP	60	288	0
TAP	60	312	1
TAP	60	336	2
TAP	60	360	3
TAP	61	0	7
TAP	61	16	6
TAP	61	32	5
TAP	61	48	0
TAP	61	64	1
TAP	61	80	2
TAP	61	96	7
TAP	61	112	6
TAP	61	128	5
TAP	61	144	0
TAP	61	160	1
TAP	61	176	2
TAP	61	192	7
TAP	61	208	6
TAP	61	224	5
TAP	61	240	0
TAP	61	256	1
TAP	61	272	2
TAP	61	288	7
TAP	61	300	6
TAP	61	312	5
TAP	61	324	4
TAP	61	336	3
TAP	61	348	2
TAP	61	360	1
TAP	61	372	0
TAP	62	0	7
TAP	62	24	3
TAP	62	48	7
TAP	62	72	3
TAP	62	96	0
TAP	62	120	2
TAP	62	144	0
TAP	62	168	2
TAP	62	192	0
TAP	62	216	7
TAP	62	240	6
TAP	62	264	5
TAP	62	288	0
TAP	62	312	1
TAP	62	336	2
TAP	62	360	3
TAP	63	0	6
TAP	63	24	2
TAP	63	48	6
TAP	63	72	2
TAP	63	96	7
TAP	63	120	1
TAP	63	144	7
TAP	63	168	1
TAP	63	192	7
TAP	63	216	6
TAP	63	240	5
TAP	63	264	4
TAP	63	288	7
TAP	63	312	0
TAP	63	336	1
TAP	63	360	2
TAP	64	0	6
TAP	64	16	5
TAP	64	32	4
TAP	64	48	1
TAP	64	64	2
TAP	64	80	3
TAP	64	96	7
TAP	64	112	6
TAP	64	128	5
TAP	64	144	0
TAP	64	160	1
TAP	64	176	2
TAP	64	192	6
TAP	64	208	5
TAP	64	224	4
TAP	64	240	7
TAP	64	256	6
TAP	64	272	5
TAP	64	288	1
TAP	64	304	2
TAP	64	320	3
TAP	64	336	0
TAP	64	352	1
TAP	64	368	2
TAP	65	0	7
TAP	65	24	6
TAP	65	48	5
TAP	65	72	4
TAP	65	96	0
TAP	65	120	1
TAP	65	144	2
TAP	65	168	3
TAP	65	192	7
TAP	65	216	6
TAP	65	240	5
TAP	65	264	4
TAP	65	288	0
TAP	65	300	1
TAP	65	312	2
TAP	65	324	3
TAP	65	336	4
TAP	65	348	5
TAP	65	360	6
TAP	65	372	7
TAP	66	0	0
TAP	66	24	5
TAP	66	48	0
TAP	66	72	5
TAP	66	96	1
TAP	66	120	6
TAP	66	144	1
TAP	66	168	6
TAP	66	192	0
TAP	66	208	1
TAP	66	224	2
TAP	66	240	3
TAP	66	256	4
TAP	66	272	5
TAP	66	288	0
TAP	66	304	7
TAP	66	320	6
TAP	66	336	5
TAP	66	352	4
TAP	66	368	3
TAP	67	0	0
TAP	67	24	6
TAP	67	48	0
TAP	67	72	6
TAP	67	96	7
TAP	67	120	5
TAP	67	144	7
TAP	67	168	5
TAP	67	192	0
TAP	67	208	1
TAP	67	224	2
TAP	67	240	3
TAP	67	256	4
TAP	67	272	5
TAP	67	288	0
TAP	67	304	7
TAP	67	320	6
TAP	67	336	5
TAP	67	352	4
TAP	67	368	3
TAP	68	0	0
TAP	68	24	4
TAP	68	48	0
TAP	68	72	4
TAP	68	96	7
TAP	68	120	5
TAP	68	144	7
TAP	68	168	5
TAP	68	192	7
TAP	68	208	0
TAP	68	224	1
TAP	68	240	2
TAP	68	256	3
TAP	68	272	4
TAP	68	288	0
TAP	68	304	7
TAP	68	320	6
TAP	68	336	5
TAP	68	352	4
TAP	68	368	3
TAP	69	0	0
TAP	69	16	1
TAP	69	32	2
TAP	69	48	7
TAP	69	64	6
TAP	69	80	5
TAP	69	96	0
TAP	69	112	1
TAP	69	128	2
TAP	69	144	7
TAP	69	160	6
TAP	69	176	5
TAP	69	192	0
TAP	69	208	1
TAP	69	224	2
TAP	69	240	7
TAP	69	256	6
TAP	69	272	5
TAP	69	288	0
TAP	69	300	1
TAP	69	312	2
TAP	69	324	3
TAP	69	336	4
TAP	69	348	5
TAP	69	360	6
TAP	69	372	7
TAP	70	0	0
TAP	70	24	5
TAP	70	48	0
TAP	70	72	5
TAP	70	96	7
TAP	70	120	4
TAP	70	144	7
TAP	70	168	4
TAP	70	192	0
TAP	70	208	1
TAP	70	224	2
TAP	70	240	3
TAP	70	256	4
TAP	70	272	5
TAP	70	288	0
TAP	70	304	7
TAP	70	320	6
TAP	70	336	5
TAP	70	352	4
TAP	70	368	3
TAP	71	0	0
TAP	71	24	6
TAP	71	48	0
TAP	71	72	6
TAP	71	96	7
TAP	71	120	5
TAP	71	144	7
TAP	71	168	5
TAP	71	192	7
TAP	71	208	0
TAP	71	224	1
TAP	71	240	2
TAP	71	256	3
TAP	71	272	4
TAP	71	288	0
TAP	71	304	7
TAP	71	320	6
TAP	71	336	5
TAP	71	352	4
TAP	71	368	3
TAP	72	0	0
TAP	72	24	7
TAP	72	48	0
TAP	72	72	7
TAP	72	96	1
TAP	72	120	6
TAP	72	144	1
TAP	72	168	6
TAP	72	192	2
TAP	72	216	5
TAP	72	240	2
TAP	72	264	5
TAP	72	288	1
TAP	72	312	6
TAP	72	336	1
TAP	72	360	6
BRK	73	0	3
TAP	73	24	4
TAP	73	48	5
TAP	73	72	6
BRK	73	96	2
TAP	73	120	3
TAP	73	144	4
TAP	73	168	5
BRK	73	192	1
TAP	73	216	2
TAP	73	240	3
TAP	73	264	4
BRK	73	288	0
TAP	73	304	1
TAP	73	320	0
TAP	73	336	1
TAP	73	352	0
TAP	73	368	1
BRK	74	0	7
TAP	74	24	6
TAP	74	48	5
TAP	74	72	4
BRK	74	96	0
TAP	74	96	3
TAP	74	120	1
TAP	74	144	2
TAP	74	168	3
TAP	74	192	4
BRK	74	192	7
TAP	74	216	6
TAP	74	240	5
TAP	74	264	4
BRK	74	288	0
TAP	74	288	3
TAP	74	312	1
TAP	74	336	2
TAP	74	360	3
TAP	75	0	4
BRK	75	0	7
TAP	75	24	6
TAP	75	48	5
TAP	75	72	4
BRK	75	96	0
TAP	75	96	3
TAP	75	120	7
TAP	75	144	6
TAP	75	168	5
TAP	75	192	4
BRK	75	192	7
TAP	75	216	6
TAP	75	240	5
TAP	75	264	4
BRK	75	288	0
TAP	75	288	3
TAP	75	312	7
TAP	75	336	6
TAP	75	360	5
BRK	76	0	7
TAP	76	24	0
TAP	76	48	7
TAP	76	72	0
TAP	76	96	6
TAP	76	120	7
TAP	76	144	6
TAP	76	168	7
TAP	76	192	0
TAP	76	216	1
TAP	76	240	2
TAP	76	264	3
TAP	76	288	7
TAP	76	312	6
TAP	76	336	5
TAP	76	360	4
BRK	77	0	0
TAP	77	24	7
TAP	77	48	0
TAP	77	72	7
TAP	77	96	1
TAP	77	120	6
TAP	77	144	1
TAP	77	168	6
TAP	77	192	0
TAP	77	216	1
TAP	77	240	2
TAP	77	264	3
TAP	77	288	7
TAP	77	312	6
TAP	77	336	5
TAP	77	360	4
BRK	78	0	0
TAP	78	0	3
TAP	78	24	1
TAP	78	48	2
TAP	78	72	3
TAP	78	96	4
BRK	78	96	7
TAP	78	120	6
TAP	78	144	5
TAP	78	168	4
BRK	78	192	0
TAP	78	192	3
TAP	78	216	1
TAP	78	240	2
TAP	78	264	3
TAP	78	288	4
BRK	78	288	7
TAP	78	312	6
TAP	78	336	5
TAP	78	360	4
BRK	79	0	0
TAP	79	0	3
TAP	79	24	1
TAP	79	48	2
TAP	79	72	3
TAP	79	96	4
BRK	79	96	7
TAP	79	120	0
TAP	79	144	1
TAP	79	168	2
BRK	79	192	0
TAP	79	192	3
TAP	79	216	1
TAP	79	240	2
TAP	79	264	3
TAP	79	288	4
BRK	79	288	7
TAP	79	312	0
TAP	79	336	1
TAP	79	360	2
BRK	80	0	0
TAP	80	0	3
TAP	80	24	4
TAP	80	48	0
TAP	80	72	5
TAP	80	96	0
TAP	80	120	6
TAP	80	144	0
TAP	80	168	7
TAP	80	192	6
TAP	80	216	5
TAP	80	240	4
TAP	80	264	3
TAP	80	288	7
TAP	80	312	0
TAP	80	336	1
TAP	80	360	2
BRK	81	0	7
TAP	81	24	4
TAP	81	48	7
TAP	81	72	3
TAP	81	96	7
TAP	81	120	2
TAP	81	144	7
TAP	81	168	1
TAP	81	192	7
TAP	81	216	6
TAP	81	240	5
TAP	81	264	4
TAP	81	288	7
TAP	81	304	0
TAP	81	320	1
TAP	81	336	2
TAP	81	352	3
TAP	81	368	4
BST	82	0	5
SCL	82	0	5	96	576	2
STR	84	0	5
SCL	84	0	5	96	576	2
TAP	86	0	2
TAP	86	96	2
TAP	86	192	5
TAP	86	288	5
TAP	87	0	1
TAP	87	48	1
TAP	87	96	6
TAP	87	144	6
TAP	87	192	0
TAP	87	240	0
TAP	87	288	7
TAP	87	336	7
TAP	88	0	1
TAP	88	16	2
TAP	88	32	3
TAP	88	48	6
TAP	88	64	5
TAP	88	80	4
TAP	88	96	1
TAP	88	112	2
TAP	88	128	3
TAP	88	144	6
TAP	88	160	5
TAP	88	176	4
TAP	88	192	0
TAP	88	208	1
TAP	88	224	2
TAP	88	240	7
TAP	88	256	6
TAP	88	272	5
TAP	88	288	0
TAP	88	304	1
TAP	88	320	2
TAP	88	336	7
TAP	88	352	6
TAP	88	368	5
TAP	89	0	3
TAP	89	16	4
TAP	89	32	3
TAP	89	48	4
TAP	89	64	3
TAP	89	80	4
TAP	89	96	2
TAP	89	112	5
TAP	89	128	2
TAP	89	144	5
TAP	89	160	2
TAP	89	176	5
TAP	89	192	1
TAP	89	208	6
TAP	89	224	1
TAP	89	240	6
TAP	89	256	1
TAP	89	272	6
TAP	89	288	0
TAP	89	300	7
TAP	89	312	6
TAP	89	324	5
TAP	89	336	0
TAP	89	336	4
TAP	89	348	3
TAP	89	348	7
TAP	89	360	2
TAP	89	360	6
TAP	89	372	1
TAP	89	372	5
BST	90	0	0
SI_	90	0	0	96	864	4
BRK	90	0	4
TAP	92	288	0
TAP	93	0	0
TAP	93	72	1
TAP	93	144	2
TAP	93	192	3
TAP	93	288	7
HLD	94	0	6	384
HLD	95	0	3	192
HLD	95	192	4	576
HLD	96	0	5	384

T_REC_TAP	793
T_REC_BRK	28
T_REC_XTP	0
T_REC_HLD	52
T_REC_XHO	0
T_REC_STR	36
T_REC_BST	2
T_REC_XST	0
T_REC_TTP	0
T_REC_THO	0
T_REC_SLD	38
T_REC_ALL	949
T_NUM_TAP	829
T_NUM_BRK	30
T_NUM_HLD	52
T_NUM_SLD	38
T_NUM_ALL	949
T_JUDGE_TAP	859
T_JUDGE_HLD	138
T_JUDGE_SLD	38
T_JUDGE_ALL	1035
TTM_EACHPAIRS	55
TTM_SCR_TAP	414500
TTM_SCR_BRK	78000
TTM_SCR_HLD	52000
TTM_SCR_SLD	57000
TTM_SCR_ALL	601500
TTM_SCR_S	580550
TTM_SCR_SS	598500
TTM_RAT_ACV	10050

