VERSION	0.00.00	1.03.00
FES_MODE	0
BPM_DEF	180.000	180.000	180.000	120.000
MET_DEF	4	4
RESOLUTION	384
CLK_DEF	384
COMPATIBLE_CODE	MA2

BPM	0	0	180.000
BPM	93	0	160.000
BPM	93	192	150.000
BPM	94	0	170.000
BPM	94	192	160.000
BPM	94	336	145.000
BPM	95	0	140.000
BPM	95	360	120.000

TAP	1	0	2
TAP	1	288	3
TAP	2	0	3
TAP	2	96	4
TAP	2	192	4
TAP	2	288	5
TAP	3	0	5
TAP	3	288	4
TAP	4	0	4
TAP	4	96	3
TAP	4	192	3
TAP	4	288	2
STR	5	0	2
SCR	5	0	2	96	192	4
STR	6	0	5
SCL	6	0	5	96	192	3
STR	7	0	2
SXL	7	0	2	96	960	5
BRK	10	0	3
HLD	10	0	4	96
TAP	10	96	3
TAP	10	144	4
TAP	10	192	3
TAP	10	240	4
TAP	10	288	2
TAP	10	336	3
HLD	11	0	2	96
TAP	11	96	3
TAP	11	144	2
TAP	11	192	4
TAP	11	240	3
TAP	11	288	5
TAP	11	336	4
HLD	12	0	6	96
TAP	12	96	4
TAP	12	144	6
TAP	12	192	3
TAP	12	240	5
TAP	12	288	2
TAP	12	336	4
STR	13	0	1
SCR	13	0	1	96	48	4
STR	13	192	5
SCR	13	192	5	96	48	0
HLD	14	0	1	144
HLD	14	144	3	96
TAP	14	240	2
TAP	14	288	3
TAP	14	336	2
HLD	15	0	4	96
TAP	15	96	3
TAP	15	144	4
TAP	15	192	3
TAP	15	240	5
TAP	15	288	4
TAP	15	336	5
HLD	16	0	6	144
HLD	16	144	4	96
TAP	16	240	5
TAP	16	288	4
TAP	16	336	5
TAP	17	0	3
TAP	17	48	4
TAP	17	96	2
TAP	17	144	3
TAP	17	192	1
TAP	17	240	4
TAP	17	288	2
TAP	17	336	5
STR	18	0	3
SCR	18	0	3	96	48	5
TAP	18	96	6
TAP	18	192	6
TAP	18	240	4
TAP	18	288	5
TAP	18	336	3
STR	19	0	4
SCL	19	0	4	96	48	2
TAP	19	96	1
TAP	19	192	1
TAP	19	240	3
TAP	19	288	2
TAP	19	336	4
STR	20	0	3
SCR	20	0	3	96	48	5
TAP	20	96	6
TAP	20	192	6
TAP	20	240	4
TAP	20	288	5
TAP	20	336	3
STR	21	0	4
SCR	21	0	4	96	48	7
TAP	21	96	1
STR	21	192	0
SCR	21	192	0	96	48	3
TAP	21	288	5
TAP	22	0	6
TAP	22	48	6
TAP	22	96	4
TAP	22	144	4
TAP	22	192	3
TAP	22	240	3
TAP	22	288	1
TAP	22	336	1
TAP	23	0	2
TAP	23	0	4
TAP	23	48	2
TAP	23	96	2
TAP	23	144	2
TAP	23	192	3
TAP	23	192	5
TAP	23	240	5
TAP	23	288	5
TAP	23	336	5
TAP	24	0	3
TAP	24	48	3
TAP	24	96	4
TAP	24	144	4
TAP	24	192	2
TAP	24	240	2
TAP	24	288	5
TAP	24	336	5
TAP	25	0	1
TAP	25	48	1
TAP	25	96	6
TAP	25	144	6
TAP	25	192	0
TAP	25	216	7
TAP	25	240	0
TAP	25	264	7
TAP	25	288	0
TAP	25	312	7
TAP	25	336	0
TAP	25	360	7
BRK	26	0	0
TAP	27	0	1
TAP	28	0	2
HLD	29	0	3	192
HLD	29	192	4	192
STR	30	0	5
SCL	30	0	5	96	192	3
HLD	31	0	4	192
HLD	31	192	3	192
STR	32	0	2
SCR	32	0	2	96	192	4
TAP	33	0	3
TAP	33	0	4
TAP	34	0	5
TAP	34	192	2
TAP	35	0	4
TAP	35	192	3
HLD	36	0	2	384
TAP	37	0	3
TAP	37	192	4
HLD	38	0	5	384
HLD	39	0	4	384
HLD	40	0	3	384
TAP	41	0	2
TAP	42	0	2
HLD	42	48	2	96
TAP	42	144	3
TAP	42	192	1
TAP	42	192	4
TAP	42	288	3
TAP	42	336	3
TAP	43	0	5
HLD	43	48	5	96
TAP	43	144	4
TAP	43	192	3
TAP	43	192	6
TAP	43	288	4
TAP	43	336	4
TAP	44	0	3
TAP	44	0	5
TAP	44	48	3
TAP	44	48	5
TAP	44	144	1
TAP	44	144	4
TAP	44	192	1
TAP	44	192	4
TAP	44	240	2
TAP	44	288	3
TAP	44	336	4
STR	45	0	5
SI_	45	0	5	96	48	3
TAP	45	96	2
TAP	45	192	2
TAP	45	240	3
TAP	45	288	1
TAP	45	288	4
TAP	46	0	5
HLD	46	48	5	96
TAP	46	144	4
TAP	46	192	3
TAP	46	192	6
TAP	46	288	4
TAP	46	336	4
TAP	47	0	2
HLD	47	48	2	96
TAP	47	144	3
TAP	47	192	1
TAP	47	192	4
TAP	47	288	3
TAP	47	336	3
TAP	48	0	2
TAP	48	0	4
TAP	48	48	2
TAP	48	48	4
TAP	48	144	3
TAP	48	144	6
TAP	48	192	3
TAP	48	192	6
TAP	48	288	1
TAP	48	288	5
TAP	48	336	1
TAP	48	336	5
TAP	49	0	2
TAP	49	48	2
TAP	49	96	4
TAP	49	144	4
STR	49	192	2
SI_	49	192	2	96	48	4
TAP	49	288	5
TAP	50	0	3
TAP	50	0	6
TAP	50	48	3
STR	50	48	6
SI_	50	48	6	96	48	3
TAP	50	144	2
TAP	50	192	2
TAP	50	288	2
TAP	50	336	3
TAP	51	0	1
TAP	51	0	4
STR	51	48	1
SI_	51	48	1	96	48	4
TAP	51	48	4
TAP	51	144	5
TAP	51	192	5
TAP	51	288	5
TAP	51	336	4
TAP	52	0	3
TAP	52	0	6
TAP	52	48	6
TAP	52	96	5
TAP	52	144	5
TAP	52	192	1
TAP	52	192	4
TAP	52	240	1
TAP	52	288	2
TAP	52	336	2
TAP	53	0	3
STR	53	0	6
SCL	53	0	6	96	48	3
TAP	53	96	2
TAP	53	192	2
TAP	53	240	2
TAP	53	288	4
TAP	53	336	4
TAP	54	0	3
TAP	54	0	5
TAP	54	48	3
TAP	54	48	5
TAP	54	144	1
TAP	54	144	4
TAP	54	192	1
TAP	54	192	4
TAP	54	288	5
TAP	54	336	4
TAP	55	0	3
TAP	55	0	6
TAP	55	48	3
TAP	55	48	6
TAP	55	144	1
TAP	55	144	5
STR	55	192	1
SCR	55	192	1	96	48	4
TAP	55	192	5
TAP	55	288	6
STR	56	0	5
SI_	56	0	5	96	48	1
TAP	56	96	3
STR	56	192	2
SI_	56	192	2	96	48	7
TAP	56	288	5
STR	57	0	4
SI_	57	0	4	96	48	0
TAP	57	96	2
TAP	57	192	1
BRK	57	288	0
BRK	57	288	4
TAP	58	0	3
TAP	58	0	6
TAP	58	48	5
TAP	58	96	4
TAP	58	144	3
HLD	58	192	2	96
TAP	58	288	3
TAP	58	336	2
TAP	59	0	1
TAP	59	0	4
TAP	59	48	2
TAP	59	96	3
TAP	59	144	4
HLD	59	192	5	96
TAP	59	288	4
TAP	59	336	5
TAP	60	0	3
TAP	60	0	6
TAP	60	48	5
TAP	60	96	4
TAP	60	144	3
TAP	60	192	2
TAP	60	192	5
TAP	60	240	4
TAP	60	288	3
TAP	60	336	2
TAP	61	0	1
TAP	61	0	4
TAP	61	48	3
TAP	61	96	2
TAP	61	144	1
STR	61	192	0
SCR	61	192	0	96	48	3
TAP	61	192	3
TAP	62	0	1
TAP	62	0	4
TAP	62	48	2
TAP	62	96	3
TAP	62	144	4
HLD	62	192	5	96
TAP	62	288	4
TAP	62	336	5
TAP	63	0	3
TAP	63	0	6
TAP	63	48	5
TAP	63	96	4
TAP	63	144	3
HLD	63	192	2	96
TAP	63	288	3
TAP	63	336	2
TAP	64	0	1
TAP	64	0	4
TAP	64	48	2
TAP	64	96	3
TAP	64	144	4
TAP	64	192	2
TAP	64	192	5
TAP	64	240	3
TAP	64	288	4
TAP	64	336	5
TAP	65	0	3
TAP	65	0	6
TAP	65	48	4
TAP	65	96	5
TAP	65	144	6
TAP	65	192	4
STR	65	192	7
SCL	65	192	7	96	48	4
HLD	66	0	2	72
HLD	66	72	3	72
HLD	66	144	4	72
HLD	66	216	5	72
TAP	66	288	7
HLD	67	0	6	72
HLD	67	72	4	72
HLD	67	144	3	72
HLD	67	216	1	72
TAP	67	288	0
HLD	68	0	2	72
TAP	68	72	3
HLD	68	144	5	72
TAP	68	216	4
TAP	68	288	3
TAP	68	288	4
TAP	68	336	3
TAP	68	336	4
TAP	69	0	2
TAP	69	0	5
TAP	69	48	2
TAP	69	48	5
TAP	69	96	1
TAP	69	96	6
TAP	69	144	1
TAP	69	144	6
STR	69	192	0
SCR	69	192	0	96	48	3
STR	69	192	7
SCL	69	192	7	96	48	4
HLD	70	0	2	72
TAP	70	0	5
TAP	70	72	3
HLD	70	144	1	72
TAP	70	144	4
TAP	70	216	2
TAP	70	288	0
TAP	70	336	0
TAP	71	0	2
HLD	71	0	5	72
TAP	71	72	4
TAP	71	144	3
HLD	71	144	6	72
TAP	71	216	5
TAP	71	288	7
TAP	71	336	7
HLD	72	0	1	72
TAP	72	0	4
TAP	72	72	2
TAP	72	144	3
HLD	72	144	6	72
TAP	72	216	5
TAP	72	288	3
TAP	72	288	4
TAP	72	336	3
TAP	72	336	4
STR	73	0	2
SI_	73	0	2	96	48	4
TAP	73	0	5
STR	73	96	6
SI_	73	96	6	96	48	0
STR	73	192	1
SI_	73	192	1	96	48	5
BRK	73	288	7
TAP	74	0	4
TAP	74	0	6
TAP	74	48	4
TAP	74	48	6
TAP	74	96	5
TAP	74	144	4
TAP	74	192	1
TAP	74	192	3
TAP	74	240	1
TAP	74	240	3
TAP	74	288	2
TAP	74	336	3
TAP	75	0	4
TAP	75	48	5
TAP	75	96	6
TAP	75	144	7
STR	75	192	0
SCL	75	192	0	96	48	5
SCR	75	192	0	96	48	3
TAP	76	0	4
TAP	76	48	4
TAP	76	96	2
TAP	76	144	2
TAP	76	192	6
TAP	76	240	6
TAP	76	288	0
TAP	76	336	0
TAP	77	0	1
TAP	77	0	4
TAP	77	48	1
TAP	77	48	4
TAP	77	96	2
TAP	77	96	5
TAP	77	144	2
TAP	77	144	5
TAP	77	192	3
STR	77	192	6
SI_	77	192	6	96	48	2
TAP	77	288	0
HLD	78	0	1	48
HLD	78	0	3	48
HLD	78	72	2	48
HLD	78	72	4	48
HLD	78	144	3	48
HLD	78	144	5	48
HLD	78	216	4	48
HLD	78	216	6	48
TAP	78	288	7
TAP	78	336	7
HLD	79	0	4	48
HLD	79	0	6	48
HLD	79	72	3	48
HLD	79	72	5	48
HLD	79	144	2	48
HLD	79	144	4	48
HLD	79	216	1	48
HLD	79	216	3	48
TAP	79	288	0
TAP	79	336	0
TAP	80	0	7
TAP	80	48	6
TAP	80	96	5
TAP	80	144	4
TAP	80	192	0
TAP	80	240	1
TAP	80	288	2
TAP	80	336	3
TAP	81	0	4
TAP	81	48	3
TAP	81	48	5
TAP	81	96	2
TAP	81	96	6
TAP	81	144	1
TAP	81	144	7
STR	81	192	0
SF_	81	192	0	96	48	4
HLD	82	0	2	240
HLD	82	0	6	240
TAP	82	336	1
TAP	82	336	4
HLD	83	0	1	240
HLD	83	0	4	240
TAP	83	336	3
TAP	83	336	5
TAP	84	0	3
TAP	84	0	5
HLD	84	96	3	192
HLD	84	96	5	192
TAP	85	0	4
HLD	85	96	2	144
HLD	85	96	3	144
TAP	85	336	3
TAP	86	0	2
TAP	86	48	2
TAP	86	96	4
TAP	86	144	4
TAP	86	192	3
TAP	86	240	3
TAP	86	288	5
TAP	86	336	5
TAP	87	0	2
TAP	87	48	2
TAP	87	96	6
TAP	87	144	6
TAP	87	192	1
TAP	87	240	1
TAP	87	288	7
TAP	87	336	7
TAP	88	0	0
TAP	88	0	1
TAP	88	48	0
TAP	88	48	1
TAP	88	96	2
TAP	88	96	3
TAP	88	144	2
TAP	88	144	3
TAP	88	192	4
TAP	88	192	5
TAP	88	240	4
TAP	88	240	5
TAP	88	288	6
TAP	88	288	7
TAP	88	336	6
TAP	88	336	7
TAP	89	0	0
TAP	89	24	7
TAP	89	48	0
TAP	89	72	7
TAP	89	96	0
TAP	89	120	7
TAP	89	144	0
TAP	89	168	7
TAP	89	192	1
TAP	89	216	6
TAP	89	240	1
TAP	89	264	6
TAP	89	288	1
TAP	89	312	6
TAP	89	336	1
TAP	89	360	6
BRK	90	0	0
TAP	90	288	1
TAP	91	0	1
TAP	91	96	2
TAP	91	192	2
TAP	91	288	3
TAP	92	0	4
TAP	92	288	6
STR	93	0	6
SCL	93	0	6	96	192	3
TAP	93	288	2
STR	94	0	2
SCR	94	0	2	96	192	4
TAP	95	0	5
TAP	95	192	4
TAP	96	0	3

T_REC_TAP	442
T_REC_BRK	6
T_REC_XTP	0
T_REC_HLD	64
T_REC_XHO	0
T_REC_STR	33
T_REC_BST	0
T_REC_XST	0
T_REC_TTP	0
T_REC_THO	0
T_REC_SLD	34
T_REC_ALL	579
T_NUM_TAP	475
T_NUM_BRK	6
T_NUM_HLD	64
T_NUM_SLD	34
T_NUM_ALL	579
T_JUDGE_TAP	481
T_JUDGE_HLD	164
T_JUDGE_SLD	34
T_JUDGE_ALL	679
TTM_EACHPAIRS	98
TTM_SCR_TAP	237500
TTM_SCR_BRK	15600
TTM_SCR_HLD	64000
TTM_SCR_SLD	51000
TTM_SCR_ALL	368100
TTM_SCR_S	356500
TTM_SCR_SS	367500
TTM_RAT_ACV	10016

