VERSION	0.00.00	1.03.00
FES_MODE	0
BPM_DEF	180.000	180.000	180.000	120.000
MET_DEF	4	4
RESOLUTION	384
CLK_DEF	384
COMPATIBLE_CODE	MA2

BPM	0	0	180.000
BPM	93	0	160.000
BPM	93	192	150.000
BPM	94	0	170.000
BPM	94	192	160.000
BPM	94	336	145.000
BPM	95	0	140.000
BPM	95	360	120.000

HLD	1	0	5	384
TAP	2	0	4
TAP	2	192	3
HLD	3	0	2	384
TAP	4	0	3
TAP	4	192	2
HLD	5	0	2	384
TAP	6	0	3
TAP	6	192	4
HLD	7	0	5	576
STR	8	192	4
SI_	8	192	4	96	336	0
TAP	10	0	7
TAP	10	96	6
HLD	10	192	5	96
TAP	10	288	4
TAP	11	0	3
TAP	11	96	3
TAP	11	192	2
TAP	11	192	4
TAP	12	0	0
TAP	12	96	1
HLD	12	192	2	96
TAP	12	288	3
TAP	13	0	4
TAP	13	96	4
TAP	13	192	3
TAP	13	192	5
TAP	14	0	7
TAP	14	96	6
HLD	14	192	5	96
TAP	14	288	4
TAP	15	0	3
TAP	15	96	3
TAP	15	192	2
TAP	15	192	4
TAP	16	0	3
TAP	16	96	2
HLD	16	192	1	96
TAP	16	288	0
TAP	17	0	7
TAP	17	96	7
BRK	17	192	1
BRK	17	192	6
TAP	18	0	4
TAP	18	96	5
HLD	18	192	6	96
TAP	18	288	7
TAP	19	0	0
TAP	19	96	1
TAP	19	192	0
TAP	19	192	1
TAP	20	0	3
TAP	20	96	2
HLD	20	192	1	96
TAP	20	288	0
TAP	21	0	7
TAP	21	96	6
TAP	21	192	6
TAP	21	192	7
TAP	22	0	4
TAP	22	96	5
HLD	22	192	6	96
TAP	22	288	7
TAP	23	0	0
TAP	23	96	1
TAP	23	192	0
TAP	23	192	1
TAP	23	288	0
TAP	23	288	1
TAP	24	0	7
TAP	24	96	7
TAP	24	192	0
TAP	24	288	0
HLD	25	0	1	192
HLD	25	0	6	192
STR	26	0	2
SCR	26	0	2	96	288	5
TAP	27	192	6
STR	28	0	6
SCL	28	0	6	96	288	3
TAP	29	192	2
STR	30	0	1
SCR	30	0	1	96	288	4
TAP	31	192	5
STR	32	0	6
SI_	32	0	6	96	288	2
TAP	34	0	2
TAP	34	192	3
TAP	35	0	4
STR	35	192	5
SI_	35	192	5	96	288	0
STR	37	0	1
SI_	37	0	1	96	288	4
TAP	38	192	5
TAP	39	0	6
STR	39	192	7
SUL	39	192	7	96	624	4
HLD	42	0	2	288
TAP	42	192	3
TAP	42	288	3
HLD	43	0	5	288
TAP	43	192	4
TAP	43	288	4
HLD	44	0	2	192
TAP	44	192	3
TAP	44	288	4
TAP	45	0	5
TAP	45	96	5
TAP	45	192	4
TAP	45	192	6
HLD	46	0	5	288
TAP	46	192	4
TAP	46	288	4
HLD	47	0	2	288
TAP	47	192	3
TAP	47	288	3
HLD	48	0	5	192
TAP	48	192	4
TAP	48	288	3
TAP	49	0	2
TAP	49	96	2
TAP	49	192	1
TAP	49	192	3
HLD	50	0	2	96
TAP	50	96	3
HLD	50	192	4	96
TAP	50	288	3
HLD	51	0	2	96
TAP	51	96	3
TAP	51	192	2
TAP	51	192	4
HLD	52	0	5	96
TAP	52	96	4
HLD	52	192	3	96
TAP	52	288	4
HLD	53	0	5	96
TAP	53	96	4
TAP	53	192	3
TAP	53	192	5
HLD	54	0	2	96
TAP	54	96	3
HLD	54	192	4	96
TAP	54	288	3
TAP	55	0	2
TAP	55	96	1
TAP	55	192	0
TAP	55	288	7
HLD	56	0	7	96
TAP	56	96	0
HLD	56	192	1	96
TAP	56	288	0
HLD	57	0	7	96
TAP	57	96	0
BRK	57	192	1
BRK	57	192	6
TAP	58	0	2
TAP	58	96	1
TAP	58	192	0
TAP	58	288	6
TAP	58	288	7
TAP	59	0	6
TAP	59	96	5
TAP	59	192	4
TAP	59	288	2
TAP	59	288	3
TAP	60	0	1
TAP	60	96	2
TAP	60	192	3
TAP	60	288	4
TAP	60	288	5
TAP	61	0	6
TAP	61	0	7
TAP	61	96	0
TAP	61	96	5
BRK	61	192	1
BRK	61	192	4
TAP	62	0	6
TAP	62	96	5
TAP	62	192	4
TAP	62	288	2
TAP	62	288	3
TAP	63	0	2
TAP	63	96	1
TAP	63	192	0
TAP	63	288	6
TAP	63	288	7
TAP	64	0	5
TAP	64	96	6
TAP	64	192	7
TAP	64	288	0
TAP	64	288	1
TAP	65	0	2
TAP	65	0	3
TAP	65	96	1
TAP	65	96	4
BRK	65	192	0
BRK	65	192	5
TAP	66	0	1
TAP	66	96	2
TAP	66	192	3
TAP	66	288	4
TAP	66	288	5
TAP	67	0	5
TAP	67	96	6
TAP	67	192	7
TAP	67	288	0
TAP	67	288	1
TAP	68	0	2
TAP	68	96	1
TAP	68	192	0
TAP	68	288	6
TAP	68	288	7
TAP	69	0	4
TAP	69	0	5
TAP	69	96	3
TAP	69	96	6
BRK	69	192	2
BRK	69	192	7
TAP	70	0	5
TAP	70	96	6
TAP	70	192	7
TAP	70	288	0
TAP	70	288	1
TAP	71	0	1
TAP	71	96	2
TAP	71	192	3
TAP	71	288	4
TAP	71	288	5
TAP	72	0	6
TAP	72	96	5
TAP	72	192	4
TAP	72	288	2
TAP	72	288	3
TAP	73	0	0
TAP	73	0	1
TAP	73	96	6
TAP	73	96	7
BRK	73	192	0
BRK	73	192	5
HLD	74	0	1	96
TAP	74	96	0
HLD	74	192	6	96
TAP	74	288	7
TAP	75	0	5
TAP	75	48	5
TAP	75	96	4
TAP	75	192	4
TAP	75	192	6
HLD	76	0	6	96
TAP	76	96	7
HLD	76	192	1	96
TAP	76	288	0
TAP	77	0	2
TAP	77	48	2
TAP	77	96	3
TAP	77	192	2
TAP	77	192	3
TAP	77	288	0
TAP	77	288	1
HLD	78	0	6	96
TAP	78	96	7
HLD	78	192	5	96
TAP	78	288	4
TAP	79	0	5
TAP	79	96	4
TAP	79	96	5
TAP	79	192	2
TAP	79	192	3
TAP	79	288	0
TAP	79	288	1
TAP	80	0	7
TAP	80	48	7
TAP	80	96	7
TAP	80	192	0
TAP	80	240	0
TAP	80	288	0
TAP	81	0	0
TAP	81	0	7
TAP	81	48	0
TAP	81	48	7
TAP	81	96	0
TAP	81	96	7
BRK	81	192	1
BRK	81	192	6
TAP	82	0	0
TAP	82	0	1
TAP	82	96	7
TAP	82	192	0
TAP	82	192	1
TAP	82	288	2
TAP	83	0	2
TAP	83	0	3
TAP	83	96	4
TAP	83	96	5
TAP	83	192	2
TAP	83	192	3
TAP	83	288	4
TAP	83	288	5
TAP	84	0	4
TAP	84	0	5
TAP	84	96	6
TAP	84	192	4
TAP	84	192	5
TAP	84	288	3
TAP	85	0	2
TAP	85	0	3
TAP	85	96	0
TAP	85	96	1
TAP	85	192	2
TAP	85	192	7
TAP	86	0	6
TAP	86	0	7
TAP	86	96	0
TAP	86	192	6
TAP	86	192	7
TAP	86	288	5
TAP	87	0	4
TAP	87	0	5
TAP	87	96	2
TAP	87	96	3
TAP	87	192	4
TAP	87	192	5
TAP	87	288	2
TAP	87	288	3
TAP	88	0	2
TAP	88	0	3
TAP	88	96	1
TAP	88	192	2
TAP	88	192	3
TAP	88	288	4
TAP	89	0	4
TAP	89	0	5
TAP	89	96	6
TAP	89	96	7
BRK	89	192	0
BRK	89	192	5
STR	90	0	6
SCL	90	0	6	96	288	3
TAP	91	192	2
STR	92	0	1
SCR	92	0	1	96	288	4
TAP	93	192	5
HLD	94	0	3	384
HLD	94	0	4	576
BRK	96	0	2
BRK	96	0	5

T_REC_TAP	271
T_REC_BRK	18
T_REC_XTP	0
T_REC_HLD	38
T_REC_XHO	0
T_REC_STR	10
T_REC_BST	0
T_REC_XST	0
T_REC_TTP	0
T_REC_THO	0
T_REC_SLD	10
T_REC_ALL	347
T_NUM_TAP	281
T_NUM_BRK	18
T_NUM_HLD	38
T_NUM_SLD	10
T_NUM_ALL	347
T_JUDGE_TAP	299
T_JUDGE_HLD	144
T_JUDGE_SLD	10
T_JUDGE_ALL	453
TTM_EACHPAIRS	72
TTM_SCR_TAP	140500
TTM_SCR_BRK	46800
TTM_SCR_HLD	38000
TTM_SCR_SLD	15000
TTM_SCR_ALL	240300
TTM_SCR_S	231350
TTM_SCR_SS	238500
TTM_RAT_ACV	10075

