VERSION	0.00.00	1.03.00
FES_MODE	0
BPM_DEF	180.000	180.000	180.000	120.000
MET_DEF	4	4
RESOLUTION	384
CLK_DEF	384
COMPATIBLE_CODE	MA2

BPM	0	0	180.000
BPM	93	0	160.000
BPM	93	192	150.000
BPM	94	0	170.000
BPM	94	192	160.000
BPM	94	336	145.000
BPM	95	0	140.000
BPM	95	360	120.000

TAP	10	0	0
TAP	10	192	0
TAP	11	0	1
TAP	11	192	1
TAP	12	0	2
TAP	12	192	2
TAP	13	0	3
TAP	13	192	3
TAP	13	192	4
TAP	14	0	4
TAP	14	192	4
TAP	15	0	5
TAP	15	192	5
TAP	16	0	6
TAP	16	192	6
TAP	17	0	7
TAP	17	192	0
TAP	17	192	7
TAP	18	0	7
TAP	18	96	7
TAP	18	192	7
TAP	19	0	6
TAP	19	96	6
TAP	19	192	6
TAP	20	0	5
TAP	20	96	5
TAP	20	192	5
TAP	21	0	4
TAP	21	96	4
TAP	21	192	3
TAP	21	192	4
TAP	22	0	3
TAP	22	96	3
TAP	22	192	3
TAP	23	0	2
TAP	23	96	2
TAP	23	192	2
TAP	24	0	1
TAP	24	96	1
TAP	24	192	1
TAP	25	0	0
TAP	25	96	0
TAP	25	192	0
STR	26	0	7
SI_	26	0	7	96	288	4
STR	28	0	0
SI_	28	0	0	96	288	3
STR	30	0	6
SI_	30	0	6	96	288	3
STR	32	0	1
SI_	32	0	1	96	288	4
TAP	34	0	7
TAP	35	0	7
TAP	36	0	5
TAP	37	0	5
TAP	38	0	3
TAP	39	0	3
HLD	40	0	1	384
TAP	42	0	0
TAP	42	0	1
TAP	43	0	0
TAP	43	0	1
TAP	44	0	2
TAP	44	0	3
TAP	45	0	2
TAP	45	0	3
TAP	46	0	4
TAP	46	0	5
TAP	47	0	4
TAP	47	0	5
TAP	48	0	6
TAP	48	0	7
TAP	49	0	6
TAP	49	0	7
TAP	50	0	0
TAP	50	192	0
TAP	51	0	1
TAP	51	192	1
TAP	52	0	2
TAP	52	192	2
TAP	53	0	3
TAP	53	0	4
TAP	53	192	3
TAP	53	192	4
TAP	54	0	4
TAP	54	192	4
TAP	55	0	5
TAP	55	192	5
TAP	56	0	6
TAP	56	192	6
BRK	57	0	0
BRK	57	0	7
TAP	58	0	7
TAP	58	192	7
TAP	59	0	6
TAP	59	192	6
TAP	60	0	5
TAP	60	192	5
TAP	61	0	4
TAP	61	96	3
TAP	61	192	4
TAP	62	0	3
TAP	62	192	3
TAP	63	0	2
TAP	63	192	2
TAP	64	0	1
TAP	64	192	1
TAP	65	0	0
TAP	65	96	7
TAP	65	192	0
TAP	66	0	1
TAP	66	192	2
TAP	67	0	3
TAP	67	192	4
TAP	68	0	5
TAP	68	192	6
TAP	69	0	0
TAP	69	0	7
TAP	69	192	0
TAP	69	192	7
TAP	70	0	6
TAP	70	192	5
TAP	71	0	4
TAP	71	192	3
TAP	72	0	2
TAP	72	192	1
TAP	73	0	0
TAP	73	0	7
BRK	73	192	0
BRK	73	192	7
TAP	74	0	1
TAP	74	96	1
TAP	74	192	1
TAP	75	0	2
TAP	75	96	2
TAP	75	192	2
TAP	76	0	3
TAP	76	96	3
TAP	76	192	3
TAP	77	0	4
TAP	77	96	3
TAP	77	192	4
TAP	78	0	5
TAP	78	96	5
TAP	78	192	5
TAP	79	0	6
TAP	79	96	6
TAP	79	192	6
TAP	80	0	7
TAP	80	96	7
TAP	80	192	7
TAP	81	0	0
TAP	81	96	7
TAP	81	192	0
TAP	82	0	0
TAP	82	96	0
TAP	82	192	0
TAP	82	288	0
TAP	83	0	1
TAP	83	96	1
TAP	83	192	1
TAP	83	288	1
TAP	84	0	2
TAP	84	96	2
TAP	84	192	2
TAP	84	288	2
TAP	85	0	3
TAP	85	96	3
TAP	85	192	3
TAP	85	288	3
TAP	86	0	4
TAP	86	96	4
TAP	86	192	5
TAP	86	288	5
TAP	87	0	6
TAP	87	96	6
TAP	87	192	7
TAP	87	288	7
TAP	88	0	0
TAP	88	48	0
TAP	88	96	0
TAP	88	192	7
TAP	88	240	7
TAP	88	288	7
TAP	89	0	0
TAP	89	48	0
TAP	89	96	7
TAP	89	144	7
TAP	89	192	0
TAP	89	240	0
TAP	89	288	7
TAP	89	336	7
BRK	90	0	0
TAP	92	0	1
TAP	94	0	2
TAP	95	0	3
TAP	96	0	3
TAP	96	0	4

T_REC_TAP	184
T_REC_BRK	5
T_REC_XTP	0
T_REC_HLD	1
T_REC_XHO	0
T_REC_STR	4
T_REC_BST	0
T_REC_XST	0
T_REC_TTP	0
T_REC_THO	0
T_REC_SLD	4
T_REC_ALL	198
T_NUM_TAP	188
T_NUM_BRK	5
T_NUM_HLD	1
T_NUM_SLD	4
T_NUM_ALL	198
T_JUDGE_TAP	193
T_JUDGE_HLD	8
T_JUDGE_SLD	4
T_JUDGE_ALL	205
TTM_EACHPAIRS	19
TTM_SCR_TAP	94000
TTM_SCR_BRK	13000
TTM_SCR_HLD	1000
TTM_SCR_SLD	6000
TTM_SCR_ALL	114000
TTM_SCR_S	110100
TTM_SCR_SS	113500
TTM_RAT_ACV	10044

