VERSION	0.00.00	1.03.00
FES_MODE	0
BPM_DEF	180.000	180.000	180.000	140.000
MET_DEF	4	4
RESOLUTION	384
CLK_DEF	384
COMPATIBLE_CODE	MA2

BPM	0	0	180.000
BPM	86	0	140.000
MET	0	0	4	4
MET	86	0	4	2
MET	86	192	4	3

TAP	2	0	1
HLD	2	0	5	72
TAP	2	72	4
TAP	2	96	6
TAP	2	144	6
HLD	2	192	6	72
HLD	2	264	5	72
TAP	2	336	4
TAP	3	0	3
TAP	3	48	3
TAP	3	96	4
TAP	3	144	4
TAP	3	192	2
TAP	3	240	3
TAP	3	288	4
TAP	3	336	5
HLD	4	0	2	72
TAP	4	0	6
TAP	4	72	3
TAP	4	96	1
TAP	4	144	1
HLD	4	192	1	72
HLD	4	264	2	72
TAP	4	336	3
STR	5	0	4
SCR	5	0	4	96	48	7
STR	5	96	0
SCR	5	96	0	96	48	3
TAP	5	144	0
HLD	5	192	7	96
TAP	5	288	3
TAP	6	0	1
HLD	6	0	5	72
TAP	6	72	4
TAP	6	96	6
TAP	6	144	6
HLD	6	192	6	72
HLD	6	264	5	72
TAP	6	336	4
TAP	7	0	3
TAP	7	48	3
TAP	7	96	4
TAP	7	144	4
TAP	7	192	2
TAP	7	240	3
TAP	7	288	4
TAP	7	336	5
TAP	8	0	3
TAP	8	48	4
TAP	8	96	2
TAP	8	144	3
TAP	8	192	1
TAP	8	240	5
TAP	8	288	4
TAP	8	336	6
TAP	9	0	2
TAP	9	48	3
TAP	9	96	1
TAP	9	144	5
TAP	9	192	4
TAP	9	240	6
TAP	9	288	2
TAP	9	336	3
TAP	10	0	0
TAP	10	48	5
TAP	10	96	4
TAP	10	144	7
TAP	10	192	2
TAP	10	240	3
TAP	10	288	0
TAP	10	336	5
TAP	11	0	4
TAP	11	48	7
TAP	11	96	1
TAP	11	144	2
TAP	11	192	0
TAP	11	240	6
TAP	11	288	5
TAP	11	336	7
TAP	12	0	0
TAP	12	48	0
STR	12	96	0
SI_	12	96	0	96	384	4
TAP	12	192	5
TAP	12	288	5
TAP	13	0	5
TAP	13	96	5
TAP	13	192	5
TAP	13	288	3
TAP	13	288	4
TAP	13	336	5
HLD	14	0	6	96
TAP	14	96	5
TAP	14	144	4
HLD	14	192	3	96
TAP	14	288	4
TAP	14	336	5
STR	15	0	3
SCL	15	0	3	96	48	0
STR	15	96	6
SCL	15	96	6	96	48	3
TAP	15	192	0
TAP	15	288	3
HLD	16	0	1	96
TAP	16	96	2
TAP	16	144	3
HLD	16	192	4	96
TAP	16	288	3
TAP	16	336	2
STR	17	0	4
SCR	17	0	4	96	48	7
STR	17	96	1
SCR	17	96	1	96	48	4
TAP	17	192	7
TAP	17	288	4
HLD	18	0	6	96
TAP	18	96	5
TAP	18	144	4
HLD	18	192	3	96
TAP	18	288	4
TAP	18	336	5
STR	19	0	3
SCL	19	0	3	96	48	0
STR	19	96	6
SCL	19	96	6	96	48	3
TAP	19	192	0
STR	19	288	3
SXR	19	288	3	96	192	4
TAP	20	0	5
TAP	20	144	6
TAP	20	192	6
TAP	20	288	2
TAP	20	288	5
TAP	21	0	2
TAP	21	48	2
TAP	21	96	3
TAP	21	144	4
TAP	21	192	5
TAP	21	240	5
TAP	21	288	3
TAP	21	288	4
HLD	22	0	1	96
TAP	22	96	7
TAP	22	144	6
HLD	22	192	5	96
TAP	22	288	4
TAP	22	336	3
STR	23	0	5
SCR	23	0	5	96	48	0
STR	23	96	2
SCR	23	96	2	96	48	5
TAP	23	192	0
TAP	23	288	5
HLD	24	0	6	96
TAP	24	96	0
TAP	24	144	1
HLD	24	192	2	96
TAP	24	288	3
TAP	24	336	4
STR	25	0	2
SCL	25	0	2	96	48	7
STR	25	96	5
SCL	25	96	5	96	48	2
TAP	25	192	7
TAP	25	288	2
HLD	26	0	1	96
TAP	26	96	7
TAP	26	144	6
HLD	26	192	5	96
TAP	26	288	4
TAP	26	336	3
STR	27	0	5
SCR	27	0	5	96	48	0
STR	27	96	2
SCR	27	96	2	96	48	5
TAP	27	192	0
STR	27	288	4
SXL	27	288	4	96	192	3
TAP	28	0	2
TAP	28	144	1
TAP	28	192	1
TAP	28	288	2
TAP	28	288	5
TAP	29	0	0
TAP	29	0	7
TAP	29	48	6
TAP	29	96	4
TAP	29	96	5
TAP	29	144	3
BRK	29	192	2
BRK	29	192	3
BRK	29	240	2
BRK	29	240	3
TAP	29	336	0
TAP	29	336	7
TAP	30	48	3
TAP	30	48	4
TAP	30	96	3
TAP	30	96	4
STR	30	192	3
SI_	30	192	3	96	48	7
TAP	30	192	5
TAP	30	288	5
TAP	31	0	5
STR	31	0	7
SI_	31	0	7	96	48	3
TAP	31	96	5
TAP	31	192	3
TAP	31	192	5
TAP	31	240	4
TAP	31	288	3
TAP	31	336	2
TAP	31	336	4
TAP	32	48	3
TAP	32	48	4
TAP	32	96	3
TAP	32	96	4
TAP	32	192	2
STR	32	192	4
SI_	32	192	4	96	48	0
TAP	32	288	2
STR	33	0	0
SI_	33	0	0	96	48	4
TAP	33	0	2
TAP	33	96	2
TAP	33	192	2
TAP	33	192	4
TAP	33	240	3
TAP	33	288	4
TAP	33	336	3
TAP	33	336	5
TAP	34	48	3
TAP	34	48	4
TAP	34	96	3
TAP	34	96	4
STR	34	192	3
SI_	34	192	3	96	48	7
TAP	34	192	5
TAP	34	288	5
TAP	35	0	5
STR	35	0	7
SI_	35	0	7	96	48	3
TAP	35	96	5
STR	35	192	3
SI_	35	192	3	96	48	7
TAP	35	192	5
STR	35	288	5
SCR	35	288	5	96	576	4
BRK	36	0	0
TAP	38	0	0
TAP	38	96	1
TAP	38	192	2
STR	38	288	3
SSR	38	288	3	96	288	7
BRK	39	288	4
STR	40	0	2
SCL	40	0	2	96	48	7
TAP	40	96	5
STR	40	144	6
SCL	40	144	6	96	48	3
TAP	40	240	3
TAP	40	288	2
TAP	40	336	1
STR	41	0	0
SI_	41	0	0	96	48	3
STR	41	96	5
SI_	41	96	5	96	48	1
STR	41	192	0
SI_	41	192	0	96	48	4
TAP	41	288	5
TAP	41	336	6
STR	42	0	7
SI_	42	0	7	96	48	3
TAP	42	96	2
TAP	42	144	1
STR	42	192	0
SCR	42	192	0	96	96	5
TAP	42	288	5
TAP	42	336	6
HLD	43	0	7	96
TAP	43	96	1
TAP	43	192	0
STR	43	240	0
SCR	43	240	0	96	48	3
STR	43	288	4
SXL	43	288	4	96	192	7
TAP	43	336	4
TAP	44	96	3
TAP	44	144	2
STR	44	192	1
SCR	44	192	1	96	48	4
TAP	44	288	4
TAP	44	336	5
STR	45	0	6
SI_	45	0	6	96	48	3
HLD	45	96	2	96
STR	45	192	3
SCR	45	192	3	96	96	1
BRK	45	288	1
TAP	46	96	2
TAP	46	96	3
TAP	46	144	1
TAP	46	144	4
STR	46	192	0
SI_	46	192	0	96	48	4
TAP	46	192	5
STR	46	288	7
SCL	46	288	7	96	192	0
TAP	46	336	7
BRK	47	0	3
TAP	47	288	3
TAP	47	288	4
STR	48	0	5
SCR	48	0	5	96	48	0
TAP	48	96	2
STR	48	144	1
SCR	48	144	1	96	48	4
TAP	48	240	4
TAP	48	288	5
TAP	48	336	6
STR	49	0	7
SXR	49	0	7	96	96	7
TAP	49	96	2
STR	49	192	0
SXL	49	192	0	96	96	0
TAP	49	288	5
STR	50	0	7
SI_	50	0	7	96	48	3
TAP	50	96	0
TAP	50	144	1
STR	50	192	2
SI_	50	192	2	96	48	6
TAP	50	288	6
TAP	50	336	5
STR	51	0	4
SI_	51	0	4	96	48	0
HLD	51	192	1	288
HLD	52	0	6	96
TAP	52	192	6
TAP	52	192	7
TAP	52	288	4
TAP	52	288	5
TAP	53	0	0
TAP	53	0	1
TAP	53	96	2
STR	53	96	3
SI_	53	96	3	96	48	7
TAP	53	192	2
TAP	53	240	1
STR	53	288	0
SI_	53	288	0	96	48	4
STR	54	0	5
SI_	54	0	5	96	48	7
STR	54	96	1
SI_	54	96	1	96	48	5
STR	54	192	6
SI_	54	192	6	96	48	2
TAP	54	240	6
STR	54	288	3
SXR	54	288	3	96	144	4
TAP	55	0	7
TAP	55	192	5
TAP	55	224	5
TAP	55	256	4
TAP	55	288	5
STR	56	0	7
SI_	56	0	7	96	1344	3
TAP	56	144	2
TAP	56	192	2
TAP	56	288	1
TAP	57	0	4
TAP	57	96	4
TAP	57	192	2
TAP	57	288	2
TAP	58	0	4
TAP	58	96	4
TAP	58	192	2
TAP	58	288	2
TAP	59	0	4
TAP	59	96	4
TAP	59	192	2
TAP	59	288	1
STR	60	0	0
SI_	60	0	0	96	1344	4
TAP	60	192	5
TAP	60	288	5
TAP	61	0	3
TAP	61	96	3
TAP	61	192	5
TAP	61	288	5
TAP	62	0	2
TAP	62	96	2
TAP	62	192	6
TAP	62	288	6
TAP	63	0	3
TAP	63	96	5
TAP	63	192	6
TAP	63	288	7
BRK	64	0	2
BST	64	0	5
SCR	64	0	5	96	48	0
TAP	64	96	2
STR	64	144	1
SCR	64	144	1	96	48	4
TAP	64	240	4
TAP	64	288	5
TAP	64	336	6
STR	65	0	7
SI_	65	0	7	96	48	3
STR	65	96	1
SI_	65	96	1	96	48	5
TAP	65	192	5
TAP	65	288	2
TAP	65	288	6
STR	66	0	0
SI_	66	0	0	96	48	4
TAP	66	0	4
TAP	66	96	7
TAP	66	144	6
STR	66	192	5
SI_	66	192	5	96	48	1
TAP	66	288	1
TAP	66	336	2
STR	67	0	3
SI_	67	0	3	96	48	0
HLD	67	192	5	384
HLD	68	0	2	576
TAP	68	288	4
STR	69	0	4
SCR	69	0	4	96	96	7
TAP	69	288	3
STR	70	0	3
SCL	70	0	3	96	96	0
TAP	70	192	5
TAP	70	288	6
STR	71	0	7
SCL	71	0	7	96	96	4
TAP	71	192	3
TAP	71	288	3
TAP	71	288	4
HLD	72	0	2	72
TAP	72	0	6
TAP	72	72	3
TAP	72	96	1
TAP	72	144	1
HLD	72	192	1	72
HLD	72	264	2	72
TAP	72	336	3
TAP	73	0	4
TAP	73	48	5
TAP	73	96	3
TAP	73	144	2
TAP	73	192	5
TAP	73	240	4
TAP	73	288	2
TAP	73	336	3
TAP	74	0	1
HLD	74	0	5	72
TAP	74	72	4
TAP	74	96	6
TAP	74	144	6
HLD	74	192	6	72
HLD	74	264	5	72
TAP	74	336	4
STR	75	0	3
SCL	75	0	3	96	48	0
STR	75	96	7
SCL	75	96	7	96	48	4
TAP	75	144	7
HLD	75	192	0	96
TAP	75	288	4
HLD	76	0	2	72
TAP	76	0	6
TAP	76	72	3
TAP	76	96	1
TAP	76	144	1
HLD	76	192	1	72
HLD	76	264	2	72
TAP	76	336	3
TAP	77	0	4
TAP	77	48	5
TAP	77	96	3
TAP	77	144	2
TAP	77	192	5
TAP	77	240	4
TAP	77	288	2
TAP	77	336	3
TAP	78	0	1
HLD	78	0	5	72
TAP	78	72	4
TAP	78	96	6
TAP	78	144	6
HLD	78	192	6	72
HLD	78	264	5	72
TAP	78	336	4
STR	79	0	3
SCL	79	0	3	96	48	0
STR	79	96	7
SCL	79	96	7	96	48	4
TAP	79	144	7
HLD	79	192	0	96
STR	79	288	4
SI_	79	288	4	96	192	7
BST	80	192	0
SCR	80	192	0	96	1824	7
HLD	86	0	5	288
STR	87	0	5
SCL	87	0	5	96	192	2
HLD	88	0	2	192
HLD	88	192	3	192
HLD	89	0	4	192
TAP	89	192	5
STR	90	0	3
SCL	90	0	3	96	96	0
STR	90	192	7
SCL	90	192	7	96	96	4
STR	91	0	0
SCR	91	0	0	96	96	3
TAP	91	192	4

T_REC_TAP	314
T_REC_BRK	9
T_REC_XTP	0
T_REC_HLD	46
T_REC_XHO	0
T_REC_STR	73
T_REC_BST	2
T_REC_XST	0
T_REC_TTP	0
T_REC_THO	0
T_REC_SLD	75
T_REC_ALL	519
T_NUM_TAP	387
T_NUM_BRK	11
T_NUM_HLD	46
T_NUM_SLD	75
T_NUM_ALL	519
T_JUDGE_TAP	398
T_JUDGE_HLD	122
T_JUDGE_SLD	75
T_JUDGE_ALL	595
TTM_EACHPAIRS	45
TTM_SCR_TAP	193500
TTM_SCR_BRK	28600
TTM_SCR_HLD	46000
TTM_SCR_SLD	112500
TTM_SCR_ALL	380600
TTM_SCR_S	368150
TTM_SCR_SS	379500
TTM_RAT_ACV	10028

