VERSION	0.00.00	1.03.00
FES_MODE	0
BPM_DEF	180.000	180.000	180.000	140.000
MET_DEF	4	4
RESOLUTION	384
CLK_DEF	384
COMPATIBLE_CODE	MA2

BPM	0	0	180.000
BPM	86	0	140.000
MET	0	0	4	4
MET	86	0	4	2
MET	86	192	4	3

TAP	2	0	2
TAP	2	96	3
TAP	2	192	5
TAP	2	288	3
TAP	2	288	5
TAP	3	0	5
TAP	3	96	4
TAP	3	192	2
TAP	3	288	2
TAP	3	288	4
TAP	4	0	2
TAP	4	96	4
TAP	4	192	5
TAP	4	288	3
TAP	4	288	5
TAP	5	0	2
TAP	5	0	4
TAP	5	96	3
TAP	5	144	3
HLD	5	192	4	96
TAP	5	288	3
TAP	6	0	5
TAP	6	96	4
TAP	6	192	2
TAP	6	288	1
TAP	6	288	3
TAP	7	0	2
TAP	7	96	3
TAP	7	192	5
TAP	7	288	4
TAP	7	288	6
STR	8	0	5
SI_	8	0	5	96	96	3
STR	8	288	2
SI_	8	288	2	96	96	0
STR	9	192	7
SI_	9	192	7	96	96	3
STR	10	96	2
SI_	10	96	2	96	96	7
STR	11	0	6
SI_	11	0	6	96	96	3
STR	11	288	1
SI_	11	288	1	96	96	6
HLD	12	192	4	384
BRK	12	192	5
TAP	12	288	5
TAP	13	0	5
TAP	13	96	5
TAP	13	192	5
TAP	13	288	3
TAP	13	288	4
TAP	14	0	2
TAP	14	0	4
TAP	14	96	3
TAP	14	144	3
TAP	14	192	4
HLD	14	288	5	96
TAP	15	0	4
TAP	15	96	3
TAP	15	96	4
TAP	15	192	2
TAP	15	192	3
TAP	16	0	3
TAP	16	0	5
TAP	16	96	4
TAP	16	144	4
TAP	16	192	3
HLD	16	288	2	96
TAP	17	0	3
TAP	17	96	3
TAP	17	96	4
TAP	17	192	2
TAP	17	192	5
TAP	18	0	2
TAP	18	0	4
TAP	18	96	3
TAP	18	144	3
TAP	18	192	4
TAP	18	288	3
HLD	18	288	5	192
TAP	19	0	4
TAP	19	96	3
TAP	19	192	2
TAP	19	192	5
STR	19	288	1
SCR	19	288	1	96	192	4
TAP	19	288	6
TAP	20	288	3
TAP	20	288	5
TAP	21	0	4
TAP	21	48	4
TAP	21	96	3
TAP	21	192	3
TAP	21	192	4
TAP	21	288	2
TAP	21	288	5
TAP	22	0	1
TAP	22	0	3
TAP	22	96	2
TAP	22	144	2
TAP	22	192	4
HLD	22	288	5	96
TAP	23	0	4
TAP	23	96	6
TAP	23	192	3
TAP	23	192	6
TAP	24	0	4
TAP	24	0	6
TAP	24	96	5
TAP	24	144	5
TAP	24	192	3
HLD	24	288	2	96
TAP	25	0	3
TAP	25	96	1
TAP	25	192	1
TAP	25	192	4
TAP	26	0	1
TAP	26	0	4
TAP	26	96	3
TAP	26	144	3
TAP	26	192	5
TAP	26	288	4
HLD	26	288	6	192
TAP	27	0	5
TAP	27	96	4
TAP	27	192	3
STR	27	288	3
SXR	27	288	3	96	192	3
HLD	27	288	4	288
TAP	28	288	3
TAP	28	288	4
HLD	29	0	3	96
HLD	29	0	4	96
TAP	29	192	2
TAP	29	192	5
TAP	29	240	2
TAP	29	240	5
HLD	29	336	2	144
TAP	30	48	3
TAP	30	96	3
TAP	30	192	1
TAP	30	192	4
TAP	30	288	2
TAP	30	336	2
TAP	31	0	3
TAP	31	96	1
TAP	31	192	2
TAP	31	192	4
TAP	31	288	5
HLD	31	336	5	144
TAP	32	48	4
TAP	32	96	4
TAP	32	192	3
TAP	32	192	6
TAP	32	288	5
TAP	32	336	5
TAP	33	0	4
TAP	33	96	6
TAP	33	192	3
TAP	33	192	5
TAP	33	288	4
HLD	33	336	4	144
TAP	34	48	3
TAP	34	96	3
HLD	34	192	2	96
HLD	34	288	3	96
HLD	35	0	4	96
HLD	35	96	5	96
TAP	35	192	7
STR	35	288	0
SXL	35	288	0	96	384	4
STR	35	288	7
SXR	35	288	7	96	384	3
TAP	37	192	2
TAP	37	192	5
TAP	38	0	1
HLD	38	0	4	384
TAP	38	96	1
TAP	38	192	2
TAP	38	288	2
TAP	39	0	3
TAP	39	96	5
TAP	39	192	6
TAP	39	288	0
TAP	39	288	7
BRK	40	0	1
BRK	40	0	6
TAP	40	96	2
TAP	40	144	2
TAP	40	192	3
TAP	40	288	4
HLD	40	288	5	96
TAP	41	0	6
TAP	41	96	0
TAP	41	96	7
TAP	41	192	1
TAP	41	192	6
TAP	41	288	5
TAP	41	336	5
TAP	42	0	4
TAP	42	96	1
TAP	42	144	1
TAP	42	192	3
TAP	42	288	6
TAP	42	336	6
TAP	43	0	7
TAP	43	96	0
TAP	43	96	5
TAP	43	192	1
TAP	43	192	6
TAP	43	288	5
TAP	43	336	5
TAP	44	0	3
TAP	44	0	5
TAP	44	96	2
TAP	44	144	2
TAP	44	192	2
TAP	44	192	4
TAP	44	288	4
TAP	44	288	5
HLD	45	0	2	96
TAP	45	0	3
TAP	45	96	1
TAP	45	192	0
STR	45	192	7
SCL	45	192	7	96	192	2
TAP	46	96	1
TAP	46	144	1
TAP	46	192	0
TAP	46	192	1
STR	46	288	0
SCR	46	288	0	96	192	5
TAP	46	288	7
TAP	47	288	0
TAP	47	288	7
BRK	48	0	2
BRK	48	0	5
TAP	48	96	6
TAP	48	144	6
TAP	48	192	4
HLD	48	288	2	96
TAP	48	288	3
TAP	49	0	1
TAP	49	96	4
HLD	49	96	5	96
TAP	49	192	6
TAP	49	288	6
TAP	49	288	7
STR	50	0	0
SI_	50	0	0	96	48	4
STR	50	0	1
SI_	50	0	1	96	48	4
STR	50	192	6
SI_	50	192	6	96	48	3
STR	50	192	7
SI_	50	192	7	96	48	3
TAP	51	0	0
TAP	51	0	1
TAP	51	96	2
TAP	51	96	3
BRK	51	192	1
BRK	51	192	6
HLD	52	0	3	96
TAP	52	0	6
TAP	52	96	4
HLD	52	192	2	96
TAP	52	192	5
TAP	52	288	3
TAP	53	0	1
TAP	53	0	4
TAP	53	96	2
TAP	53	96	3
TAP	53	192	4
TAP	53	240	4
TAP	53	288	3
HLD	54	0	6	96
HLD	54	96	4	96
HLD	54	192	3	96
STR	54	288	2
SLL	54	288	2	96	192	4
TAP	55	288	1
TAP	55	288	6
BST	56	0	5
SCL	56	0	5	96	192	2
TAP	56	192	1
TAP	56	288	1
STR	57	0	2
SCR	57	0	2	96	192	5
TAP	57	192	6
TAP	57	288	6
STR	58	0	6
SCL	58	0	6	96	192	3
TAP	58	192	2
TAP	58	288	2
HLD	59	0	2	96
HLD	59	0	3	96
TAP	59	192	1
TAP	59	192	4
HLD	60	0	4	96
HLD	60	0	6	96
TAP	60	192	4
TAP	60	192	6
TAP	60	288	5
HLD	61	0	1	96
HLD	61	0	3	96
TAP	61	192	1
TAP	61	192	3
TAP	61	288	2
HLD	62	0	3	96
HLD	62	0	5	96
HLD	62	192	2	96
HLD	62	192	4	96
STR	63	0	1
SCL	63	0	1	96	192	6
STR	63	0	5
SUR	63	0	5	96	192	2
BRK	64	0	3
BRK	64	0	4
TAP	64	96	1
TAP	64	144	1
TAP	64	192	0
HLD	64	288	6	96
TAP	64	288	7
TAP	65	0	4
TAP	65	96	0
HLD	65	96	1	96
TAP	65	192	3
TAP	65	288	3
TAP	65	288	4
STR	66	0	6
SI_	66	0	6	96	48	4
STR	66	0	7
SI_	66	0	7	96	48	3
STR	66	192	0
SI_	66	192	0	96	48	4
STR	66	192	1
SI_	66	192	1	96	48	3
TAP	67	0	6
TAP	67	0	7
TAP	67	96	3
TAP	67	96	4
BRK	67	192	0
BRK	67	192	7
HLD	68	0	1	96
TAP	68	0	6
TAP	68	96	3
TAP	68	144	3
TAP	68	192	2
TAP	68	288	1
TAP	68	288	4
TAP	69	0	1
HLD	69	0	6	96
TAP	69	96	4
TAP	69	144	4
TAP	69	192	5
TAP	69	288	3
TAP	69	288	6
TAP	70	0	0
TAP	70	0	1
TAP	70	96	2
TAP	70	96	7
TAP	70	192	6
TAP	70	192	7
STR	70	288	0
SF_	70	288	0	96	96	4
TAP	70	288	5
TAP	71	192	2
TAP	71	192	5
TAP	71	288	2
TAP	71	288	5
HLD	72	0	2	96
TAP	72	0	3
TAP	72	96	1
TAP	72	192	7
TAP	72	240	7
TAP	72	288	0
HLD	73	0	6	96
TAP	73	0	7
TAP	73	96	5
TAP	73	192	3
TAP	73	240	3
TAP	73	288	4
TAP	74	0	1
TAP	74	96	1
TAP	74	96	3
TAP	74	192	6
TAP	74	288	4
TAP	74	288	6
TAP	75	0	2
TAP	75	0	5
TAP	75	96	3
TAP	75	96	4
TAP	75	144	3
TAP	75	144	4
TAP	75	192	2
TAP	75	192	5
TAP	75	288	2
TAP	75	288	5
HLD	76	0	6	96
TAP	76	0	7
TAP	76	96	5
TAP	76	192	4
TAP	76	240	4
TAP	76	288	3
TAP	76	288	5
HLD	77	0	2	96
TAP	77	0	3
TAP	77	96	1
TAP	77	192	0
TAP	77	240	0
TAP	77	288	1
TAP	77	288	7
TAP	78	0	3
TAP	78	0	5
TAP	78	96	7
TAP	78	192	2
TAP	78	192	4
TAP	78	288	0
TAP	79	0	2
TAP	79	0	5
TAP	79	96	0
TAP	79	96	7
TAP	79	144	0
TAP	79	144	7
TAP	79	192	1
TAP	79	192	6
TAP	79	288	3
TAP	79	288	4
BST	80	192	1
SCL	80	192	1	96	1632	4
BST	80	192	6
SCR	80	192	6	96	1632	3
HLD	86	0	5	672
TAP	86	192	4
TAP	87	0	3
HLD	87	192	2	864
TAP	88	0	5
TAP	88	192	4
TAP	89	0	3
TAP	89	192	4
TAP	90	0	3
HLD	90	0	4	384
HLD	90	192	3	288
TAP	91	192	3
TAP	91	192	4

T_REC_TAP	326
T_REC_BRK	11
T_REC_XTP	0
T_REC_HLD	50
T_REC_XHO	0
T_REC_STR	26
T_REC_BST	3
T_REC_XST	0
T_REC_TTP	0
T_REC_THO	0
T_REC_SLD	29
T_REC_ALL	445
T_NUM_TAP	352
T_NUM_BRK	14
T_NUM_HLD	50
T_NUM_SLD	29
T_NUM_ALL	445
T_JUDGE_TAP	366
T_JUDGE_HLD	161
T_JUDGE_SLD	29
T_JUDGE_ALL	556
TTM_EACHPAIRS	119
TTM_SCR_TAP	176000
TTM_SCR_BRK	36400
TTM_SCR_HLD	50000
TTM_SCR_SLD	43500
TTM_SCR_ALL	305900
TTM_SCR_S	295400
TTM_SCR_SS	304500
TTM_RAT_ACV	10045

