VERSION	0.00.00	1.03.00
FES_MODE	0
BPM_DEF	180.000	180.000	180.000	140.000
MET_DEF	4	4
RESOLUTION	384
CLK_DEF	384
COMPATIBLE_CODE	MA2

BPM	0	0	180.000
BPM	86	0	140.000
MET	0	0	4	4
MET	86	0	4	2
MET	86	192	4	3

TAP	2	0	5
TAP	2	96	5
TAP	2	192	4
TAP	3	0	2
TAP	3	96	2
TAP	3	192	3
TAP	4	0	5
TAP	4	96	5
TAP	4	192	4
TAP	4	288	4
TAP	5	0	3
TAP	5	96	3
TAP	5	192	2
TAP	5	192	4
TAP	6	0	2
TAP	6	96	2
TAP	6	192	3
TAP	7	0	5
TAP	7	96	5
TAP	7	192	4
TAP	8	0	2
TAP	8	96	2
TAP	8	192	2
TAP	8	288	3
TAP	9	0	3
TAP	9	96	3
TAP	9	192	4
TAP	9	288	4
TAP	10	0	4
TAP	10	96	5
TAP	10	192	5
TAP	10	288	5
TAP	11	0	4
TAP	11	96	4
TAP	11	192	4
TAP	11	288	3
TAP	11	288	4
TAP	12	0	3
TAP	12	0	4
BST	12	96	2
SUR	12	96	2	96	432	4
BRK	12	96	5
HLD	14	0	5	192
TAP	14	192	4
TAP	14	288	4
TAP	15	0	5
TAP	15	96	5
TAP	15	192	4
HLD	16	0	2	192
TAP	16	192	3
TAP	16	288	3
TAP	17	0	2
TAP	17	96	2
TAP	17	192	3
HLD	18	0	4	192
TAP	18	192	3
TAP	18	288	3
TAP	19	0	4
TAP	19	96	3
TAP	19	192	4
TAP	20	0	5
TAP	20	96	4
TAP	20	192	3
HLD	20	288	3	288
HLD	20	288	4	288
HLD	22	0	2	192
TAP	22	192	3
TAP	22	288	3
TAP	23	0	2
TAP	23	96	3
TAP	23	192	2
TAP	23	192	3
HLD	24	0	5	192
TAP	24	192	4
TAP	24	288	4
TAP	25	0	5
TAP	25	96	4
TAP	25	192	4
TAP	25	192	5
HLD	26	0	2	192
TAP	26	192	3
TAP	26	288	3
TAP	27	0	2
TAP	27	96	3
TAP	27	192	2
TAP	27	192	3
TAP	28	0	4
TAP	28	96	3
TAP	28	192	3
TAP	28	192	4
HLD	28	288	2	288
HLD	28	288	5	288
TAP	30	0	6
TAP	30	96	5
TAP	30	192	4
TAP	30	192	5
TAP	30	288	4
TAP	30	288	5
TAP	31	0	3
TAP	31	96	2
TAP	31	192	2
TAP	31	192	3
TAP	32	0	1
TAP	32	96	2
TAP	32	192	2
TAP	32	192	3
TAP	32	288	2
TAP	32	288	3
TAP	33	0	4
TAP	33	96	5
TAP	33	192	4
TAP	33	192	5
TAP	34	0	5
TAP	34	96	5
TAP	34	192	6
TAP	34	288	6
TAP	35	0	7
TAP	35	96	7
TAP	35	192	0
TAP	35	288	0
STR	36	0	0
SCR	36	0	0	96	528	6
TAP	38	0	7
TAP	38	96	7
TAP	38	192	0
BRK	38	288	1
BRK	38	288	6
TAP	40	0	6
TAP	40	96	6
TAP	40	96	7
TAP	40	192	1
TAP	40	288	0
TAP	40	288	1
TAP	41	0	2
TAP	41	96	3
TAP	41	192	4
TAP	41	288	5
TAP	42	0	6
TAP	42	96	7
TAP	42	192	0
TAP	42	288	0
STR	43	0	7
SCL	43	0	7	96	192	4
TAP	44	0	3
TAP	44	96	3
TAP	44	96	4
TAP	44	192	5
TAP	44	288	4
TAP	44	288	5
TAP	45	0	2
TAP	45	96	2
TAP	45	96	3
TAP	45	192	1
TAP	45	288	1
STR	46	0	0
SCR	46	0	0	96	192	3
STR	47	0	4
SCR	47	0	4	96	192	7
TAP	48	0	1
TAP	48	96	0
TAP	48	96	1
TAP	48	192	6
TAP	48	288	6
TAP	48	288	7
TAP	49	0	5
TAP	49	96	4
TAP	49	192	3
TAP	49	288	2
TAP	50	0	1
TAP	50	96	0
TAP	50	192	7
TAP	50	288	7
STR	51	0	0
SCR	51	0	0	96	192	3
TAP	52	0	4
TAP	52	96	3
TAP	52	96	4
TAP	52	192	2
TAP	52	288	2
TAP	52	288	3
TAP	53	0	5
TAP	53	96	4
TAP	53	96	5
TAP	53	192	6
TAP	53	288	6
TAP	54	0	7
TAP	54	96	0
TAP	54	192	1
TAP	54	288	0
TAP	54	288	1
BST	55	0	2
SCR	55	0	2	96	192	5
BRK	55	0	7
HLD	56	0	6	192
TAP	56	192	5
HLD	57	0	1	192
TAP	57	192	2
HLD	58	0	6	192
TAP	58	192	7
HLD	59	0	1	192
TAP	59	192	0
HLD	60	0	6	192
HLD	60	192	7	192
HLD	61	0	0	192
TAP	61	192	1
HLD	62	0	1	192
HLD	62	192	0	192
TAP	63	0	7
TAP	63	192	0
TAP	63	192	6
TAP	64	0	6
TAP	64	96	6
TAP	64	96	7
TAP	64	192	1
TAP	64	288	0
TAP	64	288	1
TAP	65	0	2
TAP	65	96	3
TAP	65	192	4
TAP	65	288	5
TAP	66	0	6
TAP	66	96	6
TAP	66	96	7
TAP	66	192	1
TAP	66	288	0
TAP	66	288	1
TAP	67	0	2
STR	67	0	7
SCL	67	0	7	96	192	4
STR	68	0	3
SI_	68	0	3	96	192	7
STR	69	0	6
SI_	69	0	6	96	192	1
STR	70	0	2
SI_	70	0	2	96	192	5
STR	71	0	6
SI_	71	0	6	96	192	3
TAP	72	0	2
TAP	72	96	2
TAP	72	192	1
TAP	72	192	3
TAP	73	0	5
TAP	73	96	5
TAP	73	192	4
TAP	73	192	6
TAP	74	0	6
TAP	74	96	6
TAP	74	192	7
TAP	74	288	7
TAP	75	0	0
TAP	75	96	0
TAP	75	96	7
TAP	75	192	1
TAP	75	192	6
TAP	76	0	7
TAP	76	96	7
TAP	76	192	0
TAP	76	192	6
TAP	77	0	0
TAP	77	96	0
TAP	77	192	1
TAP	77	192	7
TAP	78	0	7
TAP	78	96	7
TAP	78	192	0
TAP	78	288	0
TAP	79	0	1
TAP	79	96	1
TAP	79	192	0
TAP	79	192	1
BRK	79	288	2
BRK	79	288	7
BRK	80	192	1
BST	80	192	6
SCR	80	192	6	96	1680	5
HLD	86	0	5	384
HLD	87	0	4	384
HLD	88	0	3	384
TAP	89	0	2
TAP	89	192	2
TAP	89	192	3
HLD	90	0	3	384
TAP	91	0	4
TAP	91	96	3
TAP	91	96	4
BRK	91	192	2
BRK	91	192	5

T_REC_TAP	229
T_REC_BRK	9
T_REC_XTP	0
T_REC_HLD	23
T_REC_XHO	0
T_REC_STR	10
T_REC_BST	3
T_REC_XST	0
T_REC_TTP	0
T_REC_THO	0
T_REC_SLD	13
T_REC_ALL	287
T_NUM_TAP	239
T_NUM_BRK	12
T_NUM_HLD	23
T_NUM_SLD	13
T_NUM_ALL	287
T_JUDGE_TAP	251
T_JUDGE_HLD	116
T_JUDGE_SLD	13
T_JUDGE_ALL	380
TTM_EACHPAIRS	47
TTM_SCR_TAP	119500
TTM_SCR_BRK	31200
TTM_SCR_HLD	23000
TTM_SCR_SLD	19500
TTM_SCR_ALL	193200
TTM_SCR_S	186250
TTM_SCR_SS	192000
TTM_RAT_ACV	10062

