VERSION	0.00.00	1.03.00
FES_MODE	0
BPM_DEF	180.000	180.000	180.000	140.000
MET_DEF	4	4
RESOLUTION	384
CLK_DEF	384
COMPATIBLE_CODE	MA2

BPM	0	0	180.000
BPM	86	0	140.000
MET	0	0	4	4
MET	86	0	4	2
MET	86	192	4	3

TAP	6	0	0
TAP	7	0	0
TAP	8	0	7
STR	9	0	7
SI_	9	0	7	96	288	4
STR	11	0	0
SI_	11	0	0	96	288	3
TAP	14	0	7
TAP	14	192	7
TAP	15	0	6
TAP	16	0	5
TAP	16	192	5
TAP	17	0	3
TAP	17	0	4
TAP	18	0	3
TAP	18	192	3
TAP	19	0	2
HLD	20	0	1	384
TAP	22	0	0
TAP	22	192	0
TAP	23	0	1
TAP	24	0	2
TAP	24	192	2
TAP	25	0	3
TAP	25	0	4
TAP	26	0	4
TAP	26	192	4
TAP	27	0	5
STR	28	0	6
SI_	28	0	6	96	288	3
HLD	30	0	2	192
HLD	30	0	3	192
TAP	31	0	2
TAP	31	0	3
TAP	31	192	2
TAP	31	192	3
HLD	32	0	4	192
HLD	32	0	5	192
TAP	33	0	4
TAP	33	0	5
TAP	33	192	4
TAP	33	192	5
HLD	34	0	6	192
HLD	34	0	7	192
TAP	35	0	6
TAP	35	0	7
TAP	35	192	6
TAP	35	192	7
HLD	36	0	0	384
TAP	38	0	7
TAP	38	192	7
BRK	39	0	7
TAP	40	0	0
TAP	40	192	0
TAP	41	0	1
TAP	41	192	1
TAP	42	0	2
TAP	42	96	2
TAP	42	192	2
TAP	43	0	3
TAP	43	0	4
HLD	44	0	4	192
HLD	44	0	5	192
HLD	45	0	2	192
HLD	45	0	3	192
TAP	46	0	3
TAP	46	0	4
TAP	46	192	3
TAP	46	192	4
BRK	47	0	2
BRK	47	0	5
TAP	48	0	4
TAP	48	192	4
TAP	49	0	5
TAP	49	192	5
TAP	50	0	6
TAP	50	96	6
TAP	50	192	6
BRK	51	0	0
BRK	51	0	7
STR	52	0	0
SI_	52	0	0	96	288	3
STR	54	0	7
SI_	54	0	7	96	288	4
TAP	56	0	0
TAP	56	192	0
TAP	57	0	7
TAP	57	192	7
TAP	58	0	6
TAP	58	192	6
TAP	59	0	4
TAP	59	0	5
TAP	60	0	4
TAP	60	192	4
TAP	61	0	3
TAP	61	192	3
TAP	62	0	2
TAP	62	192	2
TAP	63	0	0
TAP	63	0	1
TAP	64	0	0
TAP	64	192	0
TAP	65	0	1
TAP	65	192	1
TAP	66	0	2
TAP	66	96	2
TAP	66	192	2
TAP	67	0	2
TAP	67	0	3
HLD	68	0	2	192
HLD	68	0	3	192
TAP	69	0	2
TAP	69	0	3
HLD	70	0	4	192
HLD	70	0	5	192
TAP	71	0	4
TAP	71	0	5
TAP	72	0	6
TAP	72	192	6
TAP	73	0	5
TAP	73	192	5
TAP	74	0	4
TAP	74	192	4
TAP	75	0	3
TAP	75	0	4
TAP	76	0	2
TAP	76	192	2
TAP	77	0	1
TAP	77	192	1
TAP	78	0	0
TAP	78	192	0
TAP	79	0	0
TAP	79	0	7
TAP	79	192	0
TAP	79	192	7
HLD	80	192	0	1344
HLD	80	192	7	1344
TAP	86	0	0
TAP	87	0	1
TAP	88	0	2
TAP	89	0	3
TAP	90	0	3
TAP	90	0	4
TAP	90	192	3
TAP	90	192	4
TAP	91	0	4
TAP	91	96	3
TAP	91	192	4

T_REC_TAP	115
T_REC_BRK	5
T_REC_XTP	0
T_REC_HLD	18
T_REC_XHO	0
T_REC_STR	5
T_REC_BST	0
T_REC_XST	0
T_REC_TTP	0
T_REC_THO	0
T_REC_SLD	5
T_REC_ALL	148
T_NUM_TAP	120
T_NUM_BRK	5
T_NUM_HLD	18
T_NUM_SLD	5
T_NUM_ALL	148
T_JUDGE_TAP	125
T_JUDGE_HLD	128
T_JUDGE_SLD	5
T_JUDGE_ALL	258
TTM_EACHPAIRS	31
TTM_SCR_TAP	60000
TTM_SCR_BRK	13000
TTM_SCR_HLD	18000
TTM_SCR_SLD	7500
TTM_SCR_ALL	98500
TTM_SCR_S	95100
TTM_SCR_SS	98000
TTM_RAT_ACV	10051

