VERSION	0.00.00	1.03.00
FES_MODE	0
BPM_DEF	222.000	222.000	222.000	222.000
MET_DEF	4	4
RESOLUTION	384
CLK_DEF	384
COMPATIBLE_CODE	MA2

BPM	0	0	222.000

HLD	1	336	2	96
STR	1	336	5
SUR	1	336	5	96	192	2
HLD	3	0	3	672
TAP	3	0	4
TAP	3	96	5
TAP	3	288	5
TAP	4	0	4
TAP	4	96	5
HLD	4	288	4	864
TAP	5	0	3
TAP	5	96	2
TAP	5	144	2
TAP	5	288	2
TAP	6	0	3
TAP	6	96	2
TAP	6	288	2
TAP	6	336	2
HLD	7	0	2	288
TAP	7	96	5
TAP	7	288	4
TAP	8	0	3
TAP	8	0	5
TAP	8	96	4
TAP	8	144	4
TAP	8	192	3
TAP	8	240	3
TAP	8	288	5
TAP	8	336	5
TAP	9	0	2
TAP	9	48	2
TAP	9	96	6
TAP	9	144	6
TAP	9	192	1
TAP	9	240	1
TAP	9	288	7
TAP	9	336	7
STR	10	0	0
SI_	10	0	0	96	96	4
STR	10	96	6
SCR	10	96	6	96	144	3
TAP	11	0	1
TAP	11	96	2
TAP	11	96	3
TAP	11	192	1
TAP	11	240	1
TAP	11	288	4
TAP	11	336	3
TAP	12	0	2
TAP	12	0	4
TAP	12	96	3
TAP	12	96	5
TAP	12	192	6
TAP	12	240	6
TAP	12	288	3
TAP	12	336	4
TAP	13	0	2
TAP	13	0	5
TAP	13	96	1
TAP	13	96	6
HLD	13	192	5	72
TAP	13	264	4
TAP	13	336	3
TAP	13	336	6
TAP	14	0	3
TAP	14	0	6
TAP	14	96	0
TAP	14	96	7
TAP	14	192	2
TAP	14	240	3
BRK	14	288	1
BRK	14	288	4
TAP	15	0	0
TAP	15	0	5
TAP	15	32	1
TAP	15	64	2
TAP	15	96	6
TAP	15	128	5
TAP	15	160	4
TAP	15	192	1
TAP	15	224	2
TAP	15	256	3
TAP	15	288	7
TAP	15	320	6
TAP	15	352	5
TAP	16	0	3
TAP	16	0	4
TAP	16	32	2
TAP	16	64	1
TAP	16	96	5
TAP	16	128	6
TAP	16	160	7
TAP	16	192	1
TAP	16	224	2
TAP	16	256	3
TAP	16	288	4
TAP	16	288	6
STR	17	0	5
SI_	17	0	5	96	48	2
TAP	17	96	2
STR	17	192	1
SI_	17	192	1	96	48	6
TAP	17	288	6
TAP	18	0	5
TAP	18	48	5
TAP	18	96	2
TAP	18	144	2
TAP	18	192	4
TAP	18	240	3
STR	18	288	3
SCL	18	288	3	96	384	4
STR	18	288	4
SCR	18	288	4	96	384	3
TAP	20	192	3
TAP	20	192	4
TAP	20	288	1
TAP	20	288	6
TAP	21	0	2
TAP	21	48	2
TAP	21	96	3
TAP	21	144	1
TAP	21	192	5
TAP	21	240	5
TAP	21	288	4
TAP	21	336	6
TAP	22	0	3
TAP	22	0	6
STR	22	48	3
SI_	22	48	3	96	96	7
TAP	22	48	6
TAP	22	288	4
TAP	23	0	2
STR	23	0	4
SI_	23	0	4	96	96	6
TAP	23	96	2
TAP	23	192	2
TAP	23	288	2
TAP	23	288	6
TAP	24	0	2
STR	24	0	6
SI_	24	0	6	96	96	3
TAP	24	96	2
TAP	24	192	2
TAP	24	288	2
TAP	24	288	3
TAP	25	0	2
STR	25	0	3
SI_	25	0	3	96	96	5
TAP	25	96	2
TAP	25	192	2
STR	25	288	2
SCR	25	288	2	96	96	5
STR	25	288	5
SI_	25	288	5	96	96	2
TAP	26	192	0
TAP	26	192	7
TAP	26	288	2
TAP	26	288	5
TAP	27	0	3
TAP	27	0	6
TAP	27	96	1
TAP	27	96	4
TAP	27	192	2
TAP	27	224	3
TAP	27	256	2
TAP	27	288	3
STR	28	0	1
SI_	28	0	1	96	96	4
HLD	28	0	4	96
TAP	28	192	5
TAP	28	288	4
TAP	28	288	5
TAP	29	0	3
TAP	29	0	6
TAP	29	96	2
TAP	29	96	4
TAP	29	144	2
TAP	29	144	4
TAP	29	240	3
TAP	29	240	5
TAP	29	288	3
STR	29	288	5
SI_	29	288	5	96	96	0
TAP	30	0	2
TAP	30	96	1
BRK	30	192	0
BRK	30	192	1
TAP	30	288	2
TAP	30	336	3
TAP	31	0	1
TAP	31	0	4
TAP	31	96	5
TAP	31	144	4
TAP	31	192	3
TAP	31	192	6
STR	31	288	2
SI_	31	288	2	96	48	4
TAP	31	288	5
STR	32	0	6
SI_	32	0	6	96	48	2
TAP	32	96	1
TAP	32	192	1
TAP	32	192	3
TAP	32	288	5
TAP	32	336	4
TAP	33	0	3
TAP	33	0	6
TAP	33	96	2
TAP	33	144	3
TAP	33	192	1
TAP	33	192	4
TAP	33	288	2
STR	33	288	5
SI_	33	288	5	96	48	3
STR	34	0	1
SI_	34	0	1	96	48	5
TAP	34	96	6
TAP	34	192	4
TAP	34	192	6
TAP	34	288	3
TAP	34	288	5
HLD	35	0	2	96
HLD	35	0	4	96
TAP	35	144	1
TAP	35	144	5
TAP	35	240	6
TAP	35	288	6
TAP	35	288	7
HLD	36	0	3	96
HLD	36	0	5	96
TAP	36	144	2
TAP	36	144	6
TAP	36	240	1
TAP	36	288	0
HLD	36	288	1	96
HLD	37	0	3	96
HLD	37	96	4	96
HLD	37	192	5	96
TAP	37	288	2
TAP	37	336	2
TAP	37	336	5
TAP	38	48	3
TAP	38	48	4
TAP	38	96	3
TAP	38	96	4
BRK	38	192	1
BRK	38	192	6
TAP	39	0	3
TAP	39	0	5
BRK	39	96	7
TAP	39	192	0
TAP	39	192	6
TAP	39	240	0
STR	39	240	6
SCL	39	240	6	96	144	2
HLD	39	336	1	240
TAP	40	192	0
TAP	40	288	2
TAP	41	0	3
TAP	41	0	4
TAP	41	96	2
TAP	41	96	5
TAP	41	192	1
TAP	41	192	7
STR	41	240	1
SCR	41	240	1	96	144	5
TAP	41	240	7
HLD	41	336	6	240
TAP	42	192	7
TAP	42	288	4
TAP	42	288	5
TAP	43	0	2
TAP	43	0	3
BRK	43	96	0
TAP	43	192	1
TAP	43	192	3
TAP	43	240	1
TAP	43	240	3
TAP	43	336	2
TAP	44	48	4
TAP	44	48	6
TAP	44	96	4
TAP	44	96	6
HLD	44	192	5	96
HLD	44	288	2	96
TAP	45	0	3
TAP	45	96	0
TAP	45	96	1
TAP	45	192	6
TAP	45	192	7
TAP	45	240	6
STR	45	240	7
SUL	45	240	7	96	144	3
SUR	45	240	7	96	144	3
TAP	46	192	1
TAP	46	192	4
TAP	46	288	2
STR	46	288	3
SCR	46	288	3	96	192	7
TAP	47	0	1
TAP	47	96	2
TAP	47	192	3
STR	47	288	4
SCL	47	288	4	96	192	0
TAP	47	288	5
TAP	48	0	6
TAP	48	96	5
TAP	48	192	4
TAP	48	288	2
STR	48	288	3
SCR	48	288	3	96	192	7
TAP	49	0	1
TAP	49	96	2
STR	49	192	3
SI_	49	192	3	96	96	7
STR	49	288	7
SCL	49	288	7	96	96	4
SCR	49	288	7	96	96	2
TAP	50	192	3
TAP	50	288	1
TAP	50	288	6
TAP	51	0	5
TAP	51	48	5
TAP	51	96	4
HLD	51	144	6	96
TAP	51	240	7
TAP	51	288	0
TAP	51	288	7
TAP	52	0	1
TAP	52	48	1
TAP	52	96	0
HLD	52	144	2	96
TAP	52	240	3
STR	52	288	3
SXR	52	288	3	96	192	3
STR	52	288	4
SCR	52	288	4	96	192	7
TAP	53	288	0
TAP	53	288	7
BRK	54	0	1
BRK	54	0	6
BRK	54	48	1
BRK	54	48	6
TAP	54	192	3
TAP	54	192	4
TAP	54	288	0
TAP	54	288	7
TAP	54	336	1
TAP	55	0	2
STR	55	0	6
SCL	55	0	6	96	48	3
TAP	55	96	0
STR	55	144	0
SI_	55	144	0	96	48	4
TAP	55	240	7
STR	55	288	7
SCR	55	288	7	96	96	3
STR	56	0	3
SCR	56	0	3	96	96	7
TAP	56	96	7
STR	56	192	0
SF_	56	192	0	96	48	4
BRK	57	0	1
BRK	57	0	6
BRK	57	96	4
BRK	57	96	5
BRK	57	144	3
BST	57	144	6
SCR	57	144	6	96	48	1
BST	57	240	2
SUL	57	240	2	96	144	5
TAP	57	336	4
TAP	58	96	7
TAP	58	192	3
TAP	58	192	6
TAP	58	288	1
TAP	58	288	4
TAP	59	0	2
STR	59	0	7
SI_	59	0	7	96	48	4
TAP	59	96	3
STR	59	144	3
SI_	59	144	3	96	48	7
STR	59	240	5
SCL	59	240	5	96	144	6
SUL	59	240	5	96	144	6
STR	60	192	1
SCR	60	192	1	96	48	4
TAP	60	192	4
TAP	60	288	6
HLD	61	0	6	72
HLD	61	72	5	72
TAP	61	144	4
TAP	61	240	1
TAP	61	240	4
TAP	61	288	1
TAP	61	288	4
TAP	61	336	0
TAP	62	0	7
TAP	62	48	3
STR	62	48	6
SCL	62	48	6	96	48	3
HLD	62	144	1	96
TAP	62	288	0
TAP	62	288	1
TAP	63	0	0
TAP	63	24	7
TAP	63	48	0
BRK	63	96	1
BRK	63	96	6
TAP	63	192	2
TAP	63	192	4
TAP	63	240	1
TAP	63	240	5
STR	63	288	0
SCL	63	288	0	96	96	4
TAP	63	288	6
STR	64	0	4
SCL	64	0	4	96	96	0
TAP	64	96	0
STR	64	192	7
SI_	64	192	7	96	48	3
TAP	64	288	0
TAP	64	336	1
TAP	65	0	2
TAP	65	48	3
TAP	65	96	4
BST	65	144	1
SCL	65	144	1	96	48	6
BRK	65	144	5
BST	65	240	5
SCR	65	240	5	96	144	2
BRK	65	336	4
STR	66	192	3
SI_	66	192	3	96	48	0
STR	66	192	4
SI_	66	192	4	96	48	7
BRK	67	0	1
BRK	67	0	6
TAP	67	96	4
TAP	67	96	5
TAP	67	144	5
TAP	67	192	5
TAP	67	192	7
TAP	67	240	5
TAP	67	288	1
TAP	67	288	5
TAP	68	0	3
TAP	68	0	7
TAP	68	96	0
TAP	68	96	1
TAP	68	144	1
TAP	68	192	1
TAP	68	192	3
TAP	68	240	1
HLD	68	288	1	288
STR	68	288	4
SCR	68	288	4	96	96	7
TAP	69	192	7
TAP	69	288	3
TAP	69	336	4
TAP	70	0	2
TAP	70	0	5
TAP	70	96	1
TAP	70	96	6
TAP	70	144	1
TAP	70	144	6
TAP	70	240	3
TAP	70	240	4
TAP	70	288	3
TAP	70	288	4
BST	71	0	1
SI_	71	0	1	96	96	3
STR	71	96	3
SI_	71	96	3	96	96	5
TAP	71	192	6
TAP	71	288	7
STR	72	0	6
SI_	72	0	6	96	96	4
STR	72	96	4
SI_	72	96	4	96	96	2
TAP	72	192	1
TAP	72	288	0
TAP	73	0	6
TAP	73	0	7
TAP	73	96	4
TAP	73	96	5
STR	73	144	4
SI_	73	144	4	96	48	0
TAP	73	144	5
TAP	73	240	7
HLD	73	336	1	96
HLD	73	336	6	96
TAP	74	96	1
TAP	74	96	6
TAP	74	192	2
TAP	74	192	3
TAP	74	288	4
TAP	74	288	5
STR	75	0	6
SCL	75	0	6	96	96	4
STR	75	96	4
SCL	75	96	4	96	96	2
TAP	75	192	1
TAP	75	288	0
STR	76	0	1
SCR	76	0	1	96	96	3
STR	76	96	3
SCR	76	96	3	96	96	5
TAP	76	192	6
TAP	76	288	7
HLD	77	0	0	72
HLD	77	72	1	72
TAP	77	144	2
TAP	77	240	1
TAP	77	240	3
TAP	77	288	1
TAP	77	288	3
TAP	78	0	4
TAP	78	0	6
TAP	78	48	4
TAP	78	48	6
HLD	78	144	0	96
HLD	78	144	7	96
BRK	78	288	1
BRK	78	288	6
STR	79	0	0
SI_	79	0	0	96	48	4
TAP	79	48	0
TAP	79	96	6
TAP	79	144	6
STR	79	192	5
SCR	79	192	5	96	48	0
TAP	79	240	5
TAP	79	288	2
TAP	79	336	2
STR	80	0	1
SI_	80	0	1	96	48	5
TAP	80	48	1
TAP	80	96	7
TAP	80	144	7
STR	80	192	6
SCR	80	192	6	96	48	1
TAP	80	240	6
TAP	80	288	3
TAP	80	336	3
HLD	81	0	2	96
TAP	81	96	3
TAP	81	144	1
TAP	81	144	4
STR	81	240	3
SCL	81	240	3	96	144	6
HLD	81	240	6	96
TAP	82	192	4
TAP	82	192	5
TAP	82	288	1
TAP	82	288	3
STR	83	0	6
SI_	83	0	6	96	48	4
STR	83	96	1
SI_	83	96	1	96	48	7
TAP	83	192	3
TAP	83	288	2
TAP	83	288	6
STR	84	0	3
SV_	84	0	3	96	96	0
STR	84	0	5
SV_	84	0	5	96	96	0
STR	84	288	0
SXL	84	288	0	96	192	0
HLD	84	288	7	864
HLD	85	288	0	480
TAP	88	0	2
TAP	88	0	5
TAP	88	48	2
TAP	88	96	6
TAP	88	144	5
TAP	88	192	1
TAP	88	192	4
TAP	88	240	2
TAP	88	264	3
TAP	88	288	2
TAP	88	336	1
TAP	88	336	4
HLD	89	0	1	96
TAP	89	0	4
TAP	89	96	3
TAP	89	144	2
TAP	89	192	3
HLD	89	192	6	96
TAP	89	288	4
TAP	89	336	5
TAP	90	0	1
TAP	90	0	4
TAP	90	48	1
TAP	90	96	0
TAP	90	144	7
HLD	90	192	6	72
TAP	90	264	7
TAP	90	336	0
TAP	90	336	5
TAP	91	0	0
STR	91	0	5
SI_	91	0	5	96	48	0
TAP	91	96	2
TAP	91	192	2
TAP	91	240	3
BRK	91	288	0
BRK	91	288	5
TAP	92	0	2
TAP	92	0	7
TAP	92	32	6
TAP	92	64	5
TAP	92	96	1
TAP	92	128	2
TAP	92	160	3
TAP	92	192	6
TAP	92	224	5
TAP	92	256	4
TAP	92	288	0
TAP	92	320	1
TAP	92	352	2
TAP	93	0	3
TAP	93	0	4
TAP	93	32	5
TAP	93	64	6
TAP	93	96	2
TAP	93	128	1
TAP	93	160	0
TAP	93	192	6
TAP	93	224	5
TAP	93	256	4
TAP	93	288	1
TAP	93	288	3
STR	94	0	2
SCR	94	0	2	96	48	5
TAP	94	48	2
TAP	94	96	5
STR	94	192	6
SCR	94	192	6	96	48	1
TAP	94	240	6
TAP	94	288	1
TAP	95	0	2
TAP	95	48	2
TAP	95	96	3
TAP	95	144	0
TAP	95	192	6
TAP	95	240	5
STR	95	288	3
SCL	95	288	3	96	384	4
TAP	95	288	4
TAP	97	192	0
TAP	97	192	7
TAP	97	288	2
TAP	97	288	5
TAP	98	0	0
TAP	98	48	0
TAP	98	96	3
TAP	98	144	2
TAP	98	192	7
TAP	98	240	7
TAP	98	288	4
TAP	98	336	5
TAP	99	0	0
TAP	99	24	6
TAP	99	48	0
TAP	99	72	6
TAP	99	96	1
TAP	99	120	7
TAP	99	144	1
TAP	99	168	7
BRK	99	192	0
BRK	99	264	5
BRK	99	264	6
BRK	99	336	3
BRK	99	336	4
BST	100	0	3
SXR	100	0	3	96	336	2
BRK	100	0	4
TAP	101	288	3
TAP	101	288	5
HLD	102	0	2	96
HLD	102	0	4	96
TAP	102	144	2
STR	102	144	4
SCR	102	144	4	96	336	7
TAP	103	288	3
TAP	103	336	3
STR	104	0	3
SXR	104	0	3	96	336	1
TAP	104	0	4
TAP	105	288	3
TAP	105	288	4
TAP	106	0	2
TAP	106	48	2
TAP	106	96	4
TAP	106	144	4
TAP	106	192	3
TAP	106	240	3
TAP	106	288	5
TAP	106	336	5
TAP	107	0	4
TAP	107	48	4
TAP	107	96	3
TAP	107	144	3
TAP	107	192	2
TAP	107	192	4
STR	107	240	2
SI_	107	240	2	96	48	4
TAP	107	240	4

T_REC_TAP	483
T_REC_BRK	33
T_REC_XTP	0
T_REC_HLD	39
T_REC_XHO	0
T_REC_STR	70
T_REC_BST	6
T_REC_XST	0
T_REC_TTP	0
T_REC_THO	0
T_REC_SLD	79
T_REC_ALL	710
T_NUM_TAP	553
T_NUM_BRK	39
T_NUM_HLD	39
T_NUM_SLD	79
T_NUM_ALL	710
T_JUDGE_TAP	592
T_JUDGE_HLD	144
T_JUDGE_SLD	79
T_JUDGE_ALL	815
TTM_EACHPAIRS	161
TTM_SCR_TAP	276500
TTM_SCR_BRK	101400
TTM_SCR_HLD	39000
TTM_SCR_SLD	118500
TTM_SCR_ALL	535400
TTM_SCR_S	515600
TTM_SCR_SS	531500
TTM_RAT_ACV	10073

