VERSION	0.00.00	1.03.00
FES_MODE	0
BPM_DEF	222.000	222.000	222.000	222.000
MET_DEF	4	4
RESOLUTION	384
CLK_DEF	384
COMPATIBLE_CODE	MA2

BPM	0	0	222.000

STR	1	336	4
SI_	1	336	4	96	144	0
HLD	3	0	1	384
HLD	4	0	2	384
HLD	5	0	3	384
TAP	6	0	4
TAP	6	192	3
TAP	6	192	4
HLD	7	0	5	384
HLD	8	0	4	384
HLD	9	0	3	384
STR	10	0	2
SCR	10	0	2	96	192	5
TAP	11	0	5
TAP	11	96	4
TAP	11	96	5
TAP	11	192	3
TAP	11	288	3
TAP	11	288	4
HLD	12	0	5	96
HLD	12	96	4	96
HLD	12	192	3	96
TAP	12	288	2
TAP	13	0	2
TAP	13	96	1
TAP	13	96	3
TAP	13	192	4
TAP	13	288	3
TAP	13	288	5
HLD	14	0	2	96
TAP	14	96	3
BRK	14	192	1
BRK	14	192	4
HLD	15	0	2	96
TAP	15	96	3
HLD	15	192	5	96
TAP	15	288	4
HLD	16	0	1	96
TAP	16	96	2
HLD	16	192	6	96
TAP	16	288	5
TAP	17	0	3
TAP	17	0	6
TAP	17	96	5
TAP	17	192	4
TAP	17	288	3
TAP	18	0	2
TAP	18	0	4
TAP	18	96	3
TAP	18	96	5
TAP	18	192	4
TAP	18	240	4
STR	18	288	3
SCL	18	288	3	96	576	4
TAP	21	0	3
TAP	21	0	4
TAP	21	96	3
TAP	21	96	4
TAP	21	192	2
TAP	21	192	5
TAP	21	288	2
TAP	21	288	5
TAP	22	0	3
TAP	22	0	4
STR	22	48	3
SI_	22	48	3	96	144	0
STR	22	48	4
SI_	22	48	4	96	144	7
TAP	23	0	4
TAP	23	0	5
TAP	23	96	5
TAP	23	192	5
TAP	23	288	5
TAP	24	0	4
TAP	24	0	5
TAP	24	96	3
TAP	24	144	3
TAP	24	192	4
TAP	24	288	3
TAP	24	288	5
TAP	25	0	4
TAP	25	0	5
TAP	25	96	5
TAP	25	192	5
TAP	25	288	5
TAP	26	0	4
TAP	26	0	5
TAP	26	96	3
TAP	26	96	6
TAP	26	288	3
TAP	26	288	4
TAP	27	0	2
TAP	27	0	3
TAP	27	96	2
TAP	27	192	2
TAP	27	288	2
TAP	28	0	2
TAP	28	0	3
TAP	28	96	4
TAP	28	144	4
TAP	28	192	3
TAP	28	288	2
TAP	28	288	4
TAP	29	0	2
TAP	29	0	3
TAP	29	96	2
TAP	29	192	2
STR	29	288	2
SUL	29	288	2	96	192	5
STR	29	288	3
SXL	29	288	3	96	192	5
TAP	31	0	4
TAP	31	0	5
TAP	31	96	6
TAP	31	192	4
TAP	31	192	5
TAP	31	288	3
TAP	31	336	3
TAP	32	0	4
TAP	32	96	4
TAP	32	96	6
TAP	32	192	3
TAP	32	192	5
TAP	32	288	2
TAP	32	288	4
TAP	33	0	2
TAP	33	0	3
TAP	33	96	1
TAP	33	192	2
TAP	33	192	3
TAP	33	288	4
TAP	33	336	4
TAP	34	0	3
TAP	34	96	1
TAP	34	96	3
TAP	34	192	2
TAP	34	192	4
TAP	34	288	3
TAP	34	288	5
TAP	35	0	5
TAP	35	96	4
TAP	35	96	5
TAP	35	192	2
TAP	35	288	2
TAP	35	288	3
TAP	36	0	5
TAP	36	96	4
TAP	36	96	6
TAP	36	192	2
TAP	36	288	1
TAP	36	288	3
STR	37	0	4
SXL	37	0	4	96	288	4
SXR	37	0	4	96	288	4
BRK	38	192	2
BRK	38	192	6
TAP	39	0	3
TAP	39	0	4
TAP	39	96	6
STR	39	144	6
SCL	39	144	6	96	192	1
TAP	40	192	0
TAP	40	288	0
TAP	41	0	1
TAP	41	96	2
TAP	41	192	3
STR	41	240	3
SI_	41	240	3	96	96	0
TAP	42	96	5
TAP	42	192	4
TAP	42	288	3
TAP	43	0	3
TAP	43	0	4
BRK	43	96	2
BRK	43	96	5
TAP	43	192	0
STR	43	240	0
SCR	43	240	0	96	192	5
TAP	44	192	6
TAP	44	288	6
TAP	45	0	2
TAP	45	0	5
TAP	45	96	1
TAP	45	96	6
TAP	45	192	0
TAP	45	192	7
STR	45	240	0
SI_	45	240	0	96	96	3
STR	45	240	7
SI_	45	240	7	96	96	4
TAP	46	192	2
TAP	46	192	3
TAP	46	288	4
HLD	47	0	5	192
TAP	47	192	4
TAP	47	288	3
HLD	48	0	2	192
TAP	48	192	3
TAP	48	288	4
HLD	49	0	5	192
TAP	49	192	4
TAP	49	288	3
TAP	50	0	2
TAP	50	0	5
TAP	50	192	0
TAP	50	192	7
TAP	50	288	1
TAP	50	288	6
TAP	51	0	4
TAP	51	0	5
TAP	51	96	3
TAP	51	96	5
TAP	51	192	4
TAP	51	192	5
TAP	51	288	3
TAP	51	288	5
TAP	52	0	2
TAP	52	0	3
TAP	52	96	2
TAP	52	96	4
TAP	52	192	2
TAP	52	192	3
STR	52	288	3
SCL	52	288	3	96	144	0
STR	52	288	4
SCR	52	288	4	96	144	7
TAP	53	288	0
TAP	53	288	7
TAP	53	336	0
STR	53	336	7
SCL	53	336	7	96	240	2
TAP	55	0	0
TAP	55	0	1
TAP	55	96	1
TAP	55	96	4
TAP	55	144	1
TAP	55	144	4
TAP	55	240	3
TAP	55	240	6
TAP	55	288	3
TAP	55	288	6
TAP	56	0	4
STR	56	0	5
SI_	56	0	5	96	48	7
TAP	56	192	0
STR	56	192	1
SI_	56	192	1	96	48	3
TAP	57	0	4
TAP	57	0	5
TAP	57	96	6
TAP	57	96	7
TAP	57	144	6
TAP	57	144	7
STR	57	240	0
SCL	57	240	0	96	96	5
STR	57	240	1
SCR	57	240	1	96	96	4
TAP	58	192	6
TAP	58	288	5
TAP	59	0	1
TAP	59	0	4
TAP	59	96	2
TAP	59	144	2
TAP	59	240	1
TAP	59	240	3
HLD	59	336	4	144
HLD	59	336	6	144
TAP	60	192	0
TAP	60	192	7
TAP	60	288	1
TAP	60	288	6
HLD	61	0	1	72
HLD	61	72	2	72
TAP	61	144	3
TAP	61	288	3
TAP	61	288	4
TAP	62	0	5
TAP	62	48	5
TAP	62	96	4
TAP	62	144	4
TAP	62	240	4
TAP	62	240	5
BRK	62	288	3
BRK	62	288	6
TAP	63	0	6
TAP	63	0	7
TAP	63	96	3
TAP	63	96	6
TAP	63	144	3
TAP	63	144	6
TAP	63	240	1
TAP	63	240	4
TAP	63	288	1
TAP	63	288	4
STR	64	0	2
SI_	64	0	2	96	48	0
TAP	64	0	3
STR	64	192	6
SI_	64	192	6	96	48	4
TAP	64	192	7
TAP	65	0	2
TAP	65	0	3
TAP	65	96	0
TAP	65	96	1
TAP	65	144	0
TAP	65	144	1
STR	65	240	6
SCL	65	240	6	96	96	3
STR	65	240	7
SCR	65	240	7	96	96	2
TAP	66	192	1
TAP	66	288	2
TAP	67	0	3
TAP	67	0	6
TAP	67	96	6
TAP	67	96	7
TAP	67	144	6
TAP	67	144	7
TAP	67	192	6
TAP	67	192	7
TAP	67	288	0
TAP	67	288	5
TAP	68	0	1
TAP	68	0	4
TAP	68	96	0
TAP	68	96	1
TAP	68	144	0
TAP	68	144	1
TAP	68	192	0
TAP	68	192	1
TAP	68	288	2
TAP	68	288	7
HLD	69	0	3	192
HLD	69	0	5	192
STR	69	288	2
SLR	69	288	2	96	192	0
STR	69	288	6
SLL	69	288	6	96	192	0
BRK	70	288	1
BRK	70	288	7
TAP	71	0	3
TAP	71	0	4
TAP	71	96	2
TAP	71	96	4
TAP	71	144	2
TAP	71	144	4
TAP	71	240	3
TAP	71	240	5
TAP	71	288	3
TAP	71	288	5
HLD	72	0	4	192
TAP	72	0	5
TAP	72	96	7
HLD	72	192	5	192
TAP	72	288	7
TAP	73	0	4
TAP	73	96	1
TAP	73	96	3
TAP	73	144	1
TAP	73	144	3
TAP	73	240	0
STR	73	240	7
SCL	73	240	7	96	144	3
TAP	74	192	3
TAP	74	192	4
TAP	74	288	2
TAP	74	288	5
TAP	75	0	4
HLD	75	0	6	192
TAP	75	96	5
TAP	75	192	4
TAP	75	288	2
TAP	75	288	5
HLD	76	0	1	192
TAP	76	0	3
TAP	76	96	2
TAP	76	192	3
TAP	76	288	2
TAP	76	288	5
HLD	77	0	6	72
HLD	77	72	5	72
TAP	77	144	4
TAP	77	288	3
TAP	77	288	4
TAP	78	0	2
TAP	78	48	2
TAP	78	96	3
TAP	78	144	3
TAP	78	240	2
TAP	78	240	3
BRK	78	288	1
BRK	78	288	4
TAP	79	0	3
TAP	79	0	4
TAP	79	96	3
TAP	79	96	5
TAP	79	144	3
TAP	79	144	5
TAP	79	240	2
TAP	79	240	4
TAP	79	288	2
TAP	79	288	4
TAP	80	0	2
HLD	80	0	3	192
TAP	80	96	0
HLD	80	192	2	192
TAP	80	288	0
TAP	81	0	3
TAP	81	96	4
TAP	81	96	6
TAP	81	144	4
TAP	81	144	6
STR	81	240	0
SCR	81	240	0	96	144	4
TAP	81	240	7
TAP	82	192	3
TAP	82	192	6
TAP	82	288	2
TAP	82	288	5
TAP	83	0	1
TAP	83	0	4
TAP	83	96	0
TAP	83	96	1
TAP	83	144	0
TAP	83	144	1
TAP	83	192	0
TAP	83	192	1
TAP	83	288	2
TAP	83	288	7
TAP	84	0	3
TAP	84	0	6
TAP	84	96	6
TAP	84	96	7
TAP	84	144	6
TAP	84	144	7
TAP	84	192	6
TAP	84	192	7
TAP	84	288	0
TAP	84	288	5
HLD	85	0	2	288
HLD	85	0	4	288
BST	86	0	1
SXR	86	0	1	96	480	2
BST	86	0	5
SXR	86	0	5	96	480	6
TAP	88	0	2
TAP	88	96	1
TAP	88	96	3
TAP	88	192	5
TAP	88	288	4
TAP	88	288	6
HLD	89	0	2	96
HLD	89	96	3	96
HLD	89	192	4	96
TAP	89	288	5
TAP	90	0	6
TAP	90	96	5
TAP	90	96	7
TAP	90	192	1
TAP	90	288	0
TAP	90	288	2
HLD	91	0	5	96
TAP	91	96	4
BRK	91	192	3
BRK	91	192	6
HLD	92	0	2	96
TAP	92	96	3
HLD	92	192	5	96
TAP	92	288	4
HLD	93	0	1	96
TAP	93	96	0
HLD	93	192	6	96
TAP	93	288	7
TAP	94	0	0
TAP	94	0	7
TAP	94	96	1
TAP	94	96	6
TAP	94	192	2
TAP	94	192	5
TAP	94	288	3
TAP	94	288	4
TAP	95	0	3
TAP	95	0	5
TAP	95	96	2
TAP	95	96	4
TAP	95	192	3
TAP	95	240	3
STR	95	288	4
SCR	95	288	4	96	576	3
TAP	98	0	3
TAP	98	0	4
TAP	98	96	2
TAP	98	96	5
TAP	98	192	1
TAP	98	192	6
TAP	98	288	0
TAP	98	288	7
HLD	99	0	1	96
HLD	99	0	6	96
TAP	99	192	0
TAP	99	192	7
TAP	99	256	0
TAP	99	256	7
TAP	99	320	0
TAP	99	320	7
BST	100	0	1
SCR	100	0	1	96	480	4
BRK	100	0	6
TAP	101	288	5
TAP	102	0	4
TAP	102	0	5
TAP	102	144	3
TAP	102	144	4
TAP	102	288	2
STR	102	288	3
SCR	102	288	3	96	192	5
TAP	104	0	5
TAP	104	96	5
HLD	104	144	5	240
TAP	105	0	3
TAP	105	96	3
HLD	105	144	3	240
TAP	106	0	4
TAP	106	96	4
HLD	106	144	4	240
TAP	107	0	3
TAP	107	96	3
TAP	107	192	5
STR	107	240	5
SI_	107	240	5	96	48	3
TAP	107	336	3

T_REC_TAP	401
T_REC_BRK	15
T_REC_XTP	0
T_REC_HLD	46
T_REC_XHO	0
T_REC_STR	31
T_REC_BST	3
T_REC_XST	0
T_REC_TTP	0
T_REC_THO	0
T_REC_SLD	35
T_REC_ALL	531
T_NUM_TAP	432
T_NUM_BRK	18
T_NUM_HLD	46
T_NUM_SLD	35
T_NUM_ALL	531
T_JUDGE_TAP	450
T_JUDGE_HLD	169
T_JUDGE_SLD	35
T_JUDGE_ALL	654
TTM_EACHPAIRS	170
TTM_SCR_TAP	216000
TTM_SCR_BRK	46800
TTM_SCR_HLD	46000
TTM_SCR_SLD	52500
TTM_SCR_ALL	361300
TTM_SCR_S	348750
TTM_SCR_SS	359500
TTM_RAT_ACV	10050

