VERSION	0.00.00	1.03.00
FES_MODE	0
BPM_DEF	222.000	222.000	222.000	222.000
MET_DEF	4	4
RESOLUTION	384
CLK_DEF	384
COMPATIBLE_CODE	MA2

BPM	0	0	222.000

STR	3	0	6
SI_	3	0	6	96	480	1
STR	5	0	2
SI_	5	0	2	96	480	5
STR	7	0	6
SI_	7	0	6	96	480	3
STR	9	0	1
SI_	9	0	1	96	480	4
TAP	11	0	5
TAP	11	96	5
TAP	11	192	4
TAP	12	0	2
TAP	12	96	2
TAP	12	192	3
TAP	13	0	5
TAP	13	96	5
TAP	13	192	4
TAP	13	288	4
TAP	14	0	3
TAP	14	96	3
TAP	14	192	3
TAP	14	192	4
TAP	15	0	2
TAP	15	96	2
TAP	15	192	3
TAP	16	0	5
TAP	16	96	5
TAP	16	192	4
TAP	17	0	2
TAP	17	96	2
TAP	17	192	1
TAP	17	288	1
TAP	18	0	0
TAP	18	96	7
TAP	18	192	1
TAP	18	192	6
STR	19	0	1
SCR	19	0	1	96	480	5
STR	21	0	6
SCL	21	0	6	96	480	2
HLD	23	0	2	384
TAP	23	192	3
TAP	24	0	3
TAP	24	192	4
HLD	25	0	5	192
TAP	25	192	4
TAP	26	0	4
TAP	26	0	5
HLD	27	0	5	384
TAP	27	192	4
TAP	28	0	4
TAP	28	192	3
TAP	29	0	2
TAP	29	192	2
TAP	29	192	3
TAP	30	0	1
TAP	30	0	4
HLD	31	0	2	384
TAP	31	192	3
TAP	32	0	3
TAP	32	192	3
TAP	32	192	4
HLD	33	0	5	384
TAP	33	192	4
TAP	34	0	4
TAP	34	192	3
TAP	34	192	4
HLD	35	0	2	384
HLD	36	0	1	384
TAP	37	0	0
TAP	37	192	0
TAP	38	0	1
TAP	38	0	7
TAP	39	0	2
TAP	39	96	2
TAP	39	192	2
TAP	40	0	3
TAP	40	0	4
TAP	40	192	3
TAP	40	192	4
TAP	41	0	5
TAP	41	96	5
TAP	41	192	5
TAP	42	0	3
TAP	42	0	4
TAP	42	192	3
TAP	42	192	4
TAP	43	0	2
TAP	43	96	2
TAP	43	192	2
TAP	44	0	3
TAP	44	96	3
TAP	44	192	3
TAP	45	0	4
TAP	45	96	4
TAP	45	192	4
TAP	46	0	2
TAP	46	0	5
TAP	47	0	2
TAP	47	192	2
TAP	48	0	1
TAP	48	0	3
TAP	49	0	5
TAP	49	192	5
TAP	50	0	4
TAP	50	0	6
TAP	51	0	6
TAP	51	96	6
TAP	51	192	6
TAP	52	0	7
TAP	52	96	7
TAP	52	192	7
TAP	53	0	0
TAP	53	96	0
TAP	53	192	7
TAP	53	288	7
BRK	54	0	1
BRK	54	0	6
TAP	55	0	6
TAP	55	96	7
TAP	55	192	0
TAP	55	288	1
HLD	56	0	2	192
TAP	56	192	3
TAP	57	0	5
TAP	57	96	5
TAP	57	192	4
TAP	57	288	3
TAP	58	0	2
TAP	58	96	2
TAP	58	192	1
TAP	58	192	3
TAP	59	0	1
TAP	59	96	0
TAP	59	192	6
TAP	59	192	7
TAP	60	0	6
TAP	60	96	7
TAP	60	192	0
TAP	60	192	1
TAP	61	0	1
TAP	61	96	0
TAP	61	192	7
TAP	61	288	6
TAP	62	0	6
TAP	62	0	7
TAP	62	192	0
TAP	62	192	5
TAP	63	0	1
TAP	63	96	0
TAP	63	192	7
TAP	63	288	6
HLD	64	0	5	192
TAP	64	192	4
TAP	65	0	2
TAP	65	96	2
TAP	65	192	3
TAP	65	288	4
TAP	66	0	5
TAP	66	96	5
TAP	66	192	4
TAP	66	192	6
HLD	67	0	6	192
TAP	67	192	7
HLD	68	0	1	192
TAP	68	192	0
TAP	69	0	1
TAP	69	96	2
TAP	69	192	3
TAP	69	288	4
BRK	70	0	2
BRK	70	0	5
STR	71	0	0
SI_	71	0	0	96	288	5
STR	71	0	1
SI_	71	0	1	96	288	4
TAP	72	192	3
TAP	72	192	6
TAP	73	0	4
TAP	73	96	4
STR	73	192	3
SCL	73	192	3	96	288	0
STR	75	0	6
SI_	75	0	6	96	288	3
STR	75	0	7
SI_	75	0	7	96	288	2
TAP	76	192	1
TAP	76	192	4
TAP	77	0	3
TAP	77	96	3
STR	77	192	4
SCR	77	192	4	96	288	7
TAP	79	0	0
TAP	79	96	0
TAP	79	192	1
TAP	79	288	1
TAP	80	0	2
TAP	80	96	2
TAP	80	192	2
TAP	80	192	3
TAP	81	0	4
TAP	81	96	4
TAP	81	192	5
TAP	81	288	5
TAP	82	0	6
TAP	82	96	6
TAP	82	192	6
TAP	82	192	7
TAP	83	0	7
TAP	83	96	0
TAP	83	192	1
TAP	83	192	7
TAP	84	0	0
TAP	84	96	7
TAP	84	192	0
TAP	84	192	6
TAP	85	0	6
TAP	85	96	7
TAP	85	192	0
TAP	85	288	0
TAP	86	0	7
TAP	86	96	7
TAP	86	192	0
TAP	86	192	7
BRK	87	0	1
BRK	87	0	6
TAP	88	0	1
TAP	88	96	1
TAP	88	192	0
TAP	88	192	1
TAP	89	0	6
TAP	89	96	6
TAP	89	192	6
TAP	89	192	7
TAP	90	0	1
TAP	90	96	1
TAP	90	192	0
TAP	90	288	0
TAP	91	0	7
TAP	91	96	7
TAP	91	192	0
TAP	91	192	6
TAP	92	0	7
TAP	92	96	6
TAP	92	192	5
TAP	92	288	4
TAP	93	0	3
TAP	93	96	2
TAP	93	192	0
TAP	93	192	1
TAP	94	0	1
TAP	94	96	2
TAP	94	192	3
TAP	94	288	4
TAP	95	0	5
TAP	95	96	6
TAP	95	192	0
TAP	95	192	7
BST	96	0	1
SCR	96	0	1	96	480	5
BRK	96	0	6
STR	98	0	6
SCL	98	0	6	96	480	2
HLD	100	0	2	384
HLD	101	0	3	384
HLD	102	0	4	384
TAP	103	0	5
TAP	103	192	4
TAP	103	192	5
HLD	104	0	5	384
HLD	105	0	4	384
HLD	106	0	3	384
STR	107	0	2
SCR	107	0	2	96	288	5

T_REC_TAP	220
T_REC_BRK	7
T_REC_XTP	0
T_REC_HLD	17
T_REC_XHO	0
T_REC_STR	14
T_REC_BST	1
T_REC_XST	0
T_REC_TTP	0
T_REC_THO	0
T_REC_SLD	15
T_REC_ALL	274
T_NUM_TAP	234
T_NUM_BRK	8
T_NUM_HLD	17
T_NUM_SLD	15
T_NUM_ALL	274
T_JUDGE_TAP	242
T_JUDGE_HLD	116
T_JUDGE_SLD	15
T_JUDGE_ALL	373
TTM_EACHPAIRS	40
TTM_SCR_TAP	117000
TTM_SCR_BRK	20800
TTM_SCR_HLD	17000
TTM_SCR_SLD	22500
TTM_SCR_ALL	177300
TTM_SCR_S	171250
TTM_SCR_SS	176500
TTM_RAT_ACV	10045

