VERSION	0.00.00	1.03.00
FES_MODE	0
BPM_DEF	222.000	222.000	222.000	222.000
MET_DEF	4	4
RESOLUTION	384
CLK_DEF	384
COMPATIBLE_CODE	MA2

BPM	0	0	222.000

TAP	3	0	0
TAP	4	0	0
TAP	5	0	7
TAP	6	0	7
HLD	7	0	0	384
HLD	9	0	7	384
TAP	11	0	0
TAP	12	0	0
TAP	13	0	1
TAP	14	0	1
TAP	15	0	2
TAP	15	192	2
TAP	16	0	2
HLD	17	0	3	384
HLD	19	0	4	384
TAP	21	0	3
TAP	21	192	4
TAP	22	0	3
TAP	22	0	4
TAP	23	0	4
TAP	23	192	4
TAP	24	0	4
TAP	25	0	5
TAP	25	192	5
TAP	26	0	5
TAP	27	0	6
TAP	27	192	6
TAP	28	0	6
TAP	29	0	7
TAP	29	192	7
TAP	30	0	0
TAP	30	0	7
TAP	31	0	0
TAP	31	192	0
TAP	32	0	0
TAP	33	0	1
TAP	33	192	1
TAP	34	0	1
TAP	35	0	2
TAP	35	192	2
TAP	36	0	3
TAP	36	192	3
TAP	37	0	4
TAP	37	192	4
BRK	38	0	3
BRK	38	0	4
TAP	39	0	3
TAP	39	192	3
TAP	40	0	3
TAP	40	0	4
TAP	41	0	5
TAP	41	192	5
TAP	42	0	4
TAP	42	0	5
TAP	43	0	6
TAP	43	192	6
TAP	44	0	7
TAP	44	192	7
TAP	45	0	0
TAP	45	192	0
TAP	46	0	0
TAP	46	0	7
STR	47	0	7
SI_	47	0	7	96	288	4
STR	49	0	0
SI_	49	0	0	96	288	3
HLD	51	0	7	384
TAP	53	0	0
TAP	53	192	0
BRK	54	0	0
BRK	54	0	7
TAP	55	0	7
TAP	55	96	7
TAP	55	192	7
TAP	56	0	6
TAP	56	96	6
TAP	56	192	6
TAP	57	0	5
TAP	57	96	5
TAP	57	192	5
TAP	58	0	4
TAP	58	0	5
TAP	59	0	3
TAP	59	96	3
TAP	59	192	3
TAP	60	0	4
TAP	60	96	4
TAP	60	192	4
TAP	61	0	3
TAP	61	0	4
TAP	61	192	3
TAP	61	192	4
BRK	62	0	2
BRK	62	0	5
TAP	63	0	3
TAP	63	96	3
TAP	63	192	3
TAP	64	0	2
TAP	64	96	2
TAP	64	192	2
TAP	65	0	1
TAP	65	96	1
TAP	65	192	1
TAP	66	0	0
TAP	66	0	1
TAP	67	0	7
TAP	67	96	7
TAP	67	192	7
TAP	68	0	0
TAP	68	96	0
TAP	68	192	0
HLD	69	0	0	384
HLD	69	0	7	384
STR	71	0	0
SI_	71	0	0	96	288	4
STR	73	0	7
SI_	73	0	7	96	288	3
TAP	75	0	0
TAP	75	192	0
TAP	76	0	0
TAP	77	0	1
TAP	77	192	1
TAP	78	0	0
TAP	78	0	1
TAP	79	0	2
TAP	79	192	2
TAP	80	0	3
TAP	80	192	3
TAP	81	0	4
TAP	81	192	4
TAP	82	0	3
TAP	82	0	4
TAP	83	0	4
TAP	83	192	4
TAP	84	0	3
TAP	84	192	3
HLD	85	0	3	192
HLD	85	0	4	192
BRK	86	0	2
BRK	86	0	5
TAP	88	0	3
TAP	88	96	3
TAP	88	192	3
TAP	89	0	2
TAP	89	96	2
TAP	89	192	2
TAP	90	0	1
TAP	90	96	1
TAP	90	192	1
TAP	91	0	0
TAP	91	0	7
HLD	92	0	7	192
HLD	93	0	0	192
TAP	94	0	7
TAP	94	192	0
TAP	95	0	0
TAP	95	0	7
TAP	96	0	7
TAP	96	96	7
TAP	96	192	7
TAP	97	0	6
TAP	97	96	6
TAP	97	192	6
TAP	98	0	5
TAP	98	96	5
TAP	98	192	5
TAP	99	0	4
TAP	99	96	4
TAP	99	192	4
HLD	100	0	3	384
HLD	102	0	4	384
TAP	104	0	3
TAP	105	0	2
TAP	106	0	1
STR	107	0	0
SI_	107	0	0	96	288	4

T_REC_TAP	145
T_REC_BRK	8
T_REC_XTP	0
T_REC_HLD	13
T_REC_XHO	0
T_REC_STR	5
T_REC_BST	0
T_REC_XST	0
T_REC_TTP	0
T_REC_THO	0
T_REC_SLD	5
T_REC_ALL	176
T_NUM_TAP	150
T_NUM_BRK	8
T_NUM_HLD	13
T_NUM_SLD	5
T_NUM_ALL	176
T_JUDGE_TAP	158
T_JUDGE_HLD	88
T_JUDGE_SLD	5
T_JUDGE_ALL	251
TTM_EACHPAIRS	19
TTM_SCR_TAP	75000
TTM_SCR_BRK	20800
TTM_SCR_HLD	13000
TTM_SCR_SLD	7500
TTM_SCR_ALL	116300
TTM_SCR_S	112050
TTM_SCR_SS	115500
TTM_RAT_ACV	10069

