VERSION	0.00.00	1.03.00
FES_MODE	0
BPM_DEF	161.000	161.000	161.000	161.000
MET_DEF	4	4
RESOLUTION	384
CLK_DEF	384
COMPATIBLE_CODE	MA2

BPM	0	0	161.000
MET	0	0	4	4

BRK	1	288	0
TAP	2	0	2
TAP	2	24	3
TAP	2	72	1
TAP	2	96	3
STR	2	144	0
SI_	2	144	0	96	48	4
TAP	2	168	3
TAP	2	240	5
TAP	2	288	5
TAP	3	0	5
TAP	3	24	4
TAP	3	72	6
TAP	3	96	4
STR	3	144	7
SI_	3	144	7	96	48	3
TAP	3	168	4
TAP	3	240	2
TAP	3	288	2
TAP	4	0	2
TAP	4	24	3
TAP	4	72	1
TAP	4	96	3
STR	4	144	0
SI_	4	144	0	96	48	4
TAP	4	168	3
TAP	4	240	5
TAP	4	288	5
TAP	5	0	5
TAP	5	24	4
TAP	5	72	6
TAP	5	96	4
TAP	5	144	7
TAP	5	168	4
TAP	5	192	6
TAP	5	216	3
TAP	5	240	5
TAP	5	264	2
TAP	5	288	4
TAP	5	336	2
TAP	5	336	5
TAP	6	0	2
TAP	6	24	3
TAP	6	72	1
TAP	6	96	3
STR	6	144	0
SI_	6	144	0	96	48	4
TAP	6	168	3
TAP	6	240	5
TAP	6	288	7
TAP	7	0	5
TAP	7	24	4
TAP	7	72	6
TAP	7	96	4
STR	7	144	7
SI_	7	144	7	96	48	3
TAP	7	168	4
TAP	7	240	2
TAP	7	288	0
TAP	8	0	2
TAP	8	24	3
TAP	8	72	1
TAP	8	96	3
STR	8	144	0
SI_	8	144	0	96	48	4
TAP	8	168	3
TAP	8	240	5
TAP	8	288	7
TAP	9	0	2
TAP	9	24	3
TAP	9	72	5
TAP	9	96	4
HLD	9	144	0	96
TAP	9	168	7
TAP	9	240	7
TAP	9	256	6
TAP	9	272	5
BRK	9	288	1
BRK	9	288	4
TAP	10	0	5
TAP	10	24	5
TAP	10	72	3
TAP	10	96	3
TAP	10	144	4
TAP	10	168	4
TAP	10	216	2
TAP	10	240	3
TAP	10	264	1
TAP	10	288	3
TAP	10	336	1
TAP	10	336	4
TAP	11	0	2
TAP	11	24	2
TAP	11	72	4
TAP	11	96	4
TAP	11	144	3
TAP	11	168	3
TAP	11	216	5
TAP	11	240	4
TAP	11	264	6
TAP	11	288	4
TAP	11	336	3
TAP	11	336	6
TAP	12	0	6
TAP	12	24	6
TAP	12	72	0
TAP	12	96	0
TAP	12	144	7
TAP	12	168	7
TAP	12	216	1
TAP	12	240	0
TAP	12	264	1
TAP	12	288	0
TAP	12	336	2
TAP	12	336	7
TAP	13	0	1
TAP	13	24	1
TAP	13	72	7
TAP	13	96	7
TAP	13	144	0
TAP	13	168	0
TAP	13	216	6
TAP	13	240	6
TAP	13	240	7
TAP	13	288	6
TAP	13	288	7
TAP	13	336	0
TAP	13	336	5
TAP	14	0	4
TAP	14	24	4
TAP	14	72	3
TAP	14	96	3
TAP	14	144	5
HLD	14	168	3	120
HLD	14	168	6	120
TAP	15	0	3
TAP	15	24	3
TAP	15	72	4
TAP	15	96	4
TAP	15	144	2
HLD	15	168	1	120
HLD	15	168	4	120
TAP	16	0	3
TAP	16	24	4
TAP	16	48	3
TAP	16	72	4
TAP	16	96	2
TAP	16	120	5
TAP	16	144	2
TAP	16	168	5
TAP	16	192	1
TAP	16	216	6
TAP	16	240	1
TAP	16	264	6
STR	16	288	0
SCL	16	288	0	96	144	1
TAP	16	312	7
TAP	16	336	0
TAP	16	360	7
TAP	17	0	0
STR	17	192	0
SF_	17	192	0	96	48	4
BRK	17	288	0
STR	18	0	0
SCR	18	0	0	96	48	3
TAP	18	48	7
TAP	18	96	0
TAP	18	96	6
TAP	18	144	5
TAP	18	192	3
TAP	18	192	6
TAP	18	240	5
TAP	18	256	4
TAP	18	272	5
TAP	18	288	4
TAP	18	336	2
STR	19	0	0
SI_	19	0	0	96	48	4
TAP	19	0	1
TAP	19	48	7
TAP	19	96	0
TAP	19	96	6
TAP	19	144	5
TAP	19	192	4
TAP	19	240	3
TAP	19	240	5
TAP	19	288	2
TAP	19	336	3
TAP	19	336	6
STR	20	0	7
SCL	20	0	7	96	48	4
TAP	20	48	0
TAP	20	96	1
TAP	20	96	7
TAP	20	144	2
TAP	20	192	1
TAP	20	192	4
TAP	20	240	2
TAP	20	256	3
TAP	20	272	2
TAP	20	288	3
TAP	20	336	5
TAP	21	0	6
STR	21	0	7
SI_	21	0	7	96	48	3
TAP	21	48	0
TAP	21	96	1
TAP	21	96	7
TAP	21	144	2
HLD	21	192	2	24
HLD	21	192	4	24
HLD	21	240	1	24
HLD	21	240	5	24
BRK	21	288	0
BRK	21	288	6
STR	22	0	0
SCR	22	0	0	96	48	3
TAP	22	48	7
TAP	22	96	0
TAP	22	96	6
TAP	22	144	5
TAP	22	192	3
TAP	22	192	6
TAP	22	240	5
TAP	22	256	4
TAP	22	272	5
TAP	22	288	4
TAP	22	336	2
STR	23	0	0
SI_	23	0	0	96	48	4
TAP	23	0	1
TAP	23	48	7
TAP	23	96	0
TAP	23	96	6
TAP	23	144	5
TAP	23	192	4
TAP	23	240	3
TAP	23	240	5
TAP	23	288	2
TAP	23	336	3
TAP	23	336	6
STR	24	0	7
SCL	24	0	7	96	48	4
TAP	24	48	0
TAP	24	96	1
TAP	24	96	7
TAP	24	144	2
TAP	24	192	1
TAP	24	192	4
TAP	24	240	2
TAP	24	256	3
TAP	24	272	2
TAP	24	288	3
TAP	24	336	1
TAP	24	336	4
STR	25	0	0
SCL	25	0	0	96	48	5
SCR	25	0	0	96	48	3
STR	25	96	0
SI_	25	96	0	96	48	4
TAP	25	192	0
BRK	25	288	1
BRK	25	288	5
STR	26	0	7
SCL	26	0	7	96	48	4
TAP	26	48	0
TAP	26	96	1
TAP	26	96	7
TAP	26	144	0
TAP	26	192	1
TAP	26	192	4
TAP	26	240	2
TAP	26	256	3
TAP	26	272	2
TAP	26	288	3
TAP	26	336	5
TAP	27	0	6
STR	27	0	7
SI_	27	0	7	96	48	3
TAP	27	48	0
TAP	27	96	1
TAP	27	96	7
TAP	27	144	0
TAP	27	192	2
TAP	27	192	4
TAP	27	240	3
TAP	27	240	5
TAP	27	288	1
TAP	27	288	4
TAP	27	336	2
TAP	27	336	6
STR	28	0	0
SCR	28	0	0	96	48	3
TAP	28	48	7
TAP	28	96	0
TAP	28	96	6
TAP	28	144	7
TAP	28	192	3
TAP	28	192	6
TAP	28	240	5
TAP	28	256	4
TAP	28	272	5
TAP	28	288	4
TAP	28	336	2
STR	29	0	0
SI_	29	0	0	96	48	4
TAP	29	0	1
TAP	29	48	7
TAP	29	96	0
TAP	29	96	6
TAP	29	144	7
HLD	29	192	3	24
HLD	29	192	5	24
HLD	29	240	2	24
HLD	29	240	6	24
BRK	29	288	1
BRK	29	288	7
STR	30	0	7
SCL	30	0	7	96	48	4
TAP	30	48	0
TAP	30	96	1
TAP	30	96	7
TAP	30	144	0
TAP	30	192	1
TAP	30	192	4
TAP	30	240	2
TAP	30	256	3
TAP	30	272	2
TAP	30	288	3
TAP	30	336	5
TAP	31	0	6
STR	31	0	7
SI_	31	0	7	96	48	3
TAP	31	48	0
TAP	31	96	1
TAP	31	96	7
TAP	31	144	0
TAP	31	192	2
TAP	31	192	4
TAP	31	240	3
TAP	31	240	5
TAP	31	288	1
TAP	31	288	4
TAP	31	336	2
TAP	31	336	6
TAP	32	0	6
TAP	32	0	7
TAP	32	48	6
TAP	32	48	7
TAP	32	96	4
TAP	32	96	5
TAP	32	144	4
TAP	32	144	5
TAP	32	192	2
TAP	32	192	3
TAP	32	240	2
TAP	32	240	3
TAP	32	288	0
TAP	32	288	1
TAP	32	336	0
TAP	32	336	1
TAP	33	0	2
TAP	33	24	2
TAP	33	24	3
TAP	33	72	5
TAP	33	96	4
TAP	33	96	5
STR	33	144	0
SSL	33	144	0	96	48	4
TAP	33	144	7
TAP	33	168	0
TAP	33	168	7
STR	34	0	0
SCR	34	0	0	96	48	3
TAP	34	0	5
TAP	34	72	6
TAP	34	144	7
TAP	34	192	0
STR	34	192	7
SCL	34	192	7	96	48	4
TAP	34	264	1
TAP	34	336	2
STR	35	0	2
SCL	35	0	2	96	48	7
TAP	35	0	3
TAP	35	72	4
TAP	35	144	5
TAP	35	192	4
STR	35	192	5
SCR	35	192	5	96	48	0
TAP	35	264	3
TAP	35	336	2
STR	36	0	2
SI_	36	0	2	96	48	7
TAP	36	0	7
TAP	36	72	6
TAP	36	144	5
TAP	36	192	3
STR	36	192	5
SI_	36	192	5	96	48	0
TAP	36	264	2
TAP	36	336	1
STR	37	0	1
SCR	37	0	1	96	48	4
TAP	37	0	5
TAP	37	192	0
TAP	37	192	7
TAP	37	240	1
TAP	37	240	6
BRK	37	288	2
BRK	37	288	5
STR	38	0	3
SI_	38	0	3	96	48	0
TAP	38	0	6
TAP	38	72	4
TAP	38	96	3
TAP	38	144	5
TAP	38	192	5
TAP	38	240	0
TAP	38	240	1
TAP	38	288	2
TAP	38	288	7
TAP	39	0	1
STR	39	0	4
SI_	39	0	4	96	48	7
TAP	39	72	3
TAP	39	96	4
TAP	39	144	2
TAP	39	192	2
TAP	39	240	6
TAP	39	240	7
TAP	39	288	0
TAP	39	288	5
HLD	40	0	2	72
HLD	40	72	3	72
TAP	40	144	4
HLD	40	192	5	72
HLD	40	264	6	72
TAP	40	336	7
TAP	41	0	2
STR	41	0	7
SI_	41	0	7	96	48	3
TAP	41	72	1
TAP	41	144	0
STR	41	192	0
SI_	41	192	0	96	48	4
TAP	41	192	7
TAP	41	264	6
TAP	41	336	5
TAP	42	0	4
STR	42	0	5
SI_	42	0	5	96	48	0
TAP	42	72	3
TAP	42	144	2
STR	42	192	2
SI_	42	192	2	96	48	7
TAP	42	192	6
TAP	42	264	5
TAP	42	336	4
TAP	43	0	0
STR	43	0	4
SI_	43	0	4	96	48	7
TAP	43	72	1
TAP	43	144	2
STR	43	192	2
SI_	43	192	2	96	48	7
TAP	43	192	4
TAP	43	264	5
TAP	43	336	6
TAP	44	0	2
STR	44	0	6
SCL	44	0	6	96	48	3
TAP	44	192	0
TAP	44	192	7
TAP	44	240	1
TAP	44	240	6
BRK	44	288	2
BRK	44	288	5
HLD	45	0	7	144
TAP	45	72	4
TAP	45	144	2
HLD	45	192	2	96
TAP	45	240	0
TAP	45	288	0
TAP	46	0	0
STR	46	0	7
SI_	46	0	7	96	48	4
TAP	46	72	1
TAP	46	144	2
STR	46	192	2
SCL	46	192	2	96	48	7
TAP	46	192	4
TAP	46	264	5
TAP	46	336	6
TAP	47	0	6
TAP	47	48	0
TAP	47	96	0
TAP	47	144	7
TAP	47	192	7
TAP	47	216	0
TAP	47	240	6
TAP	47	264	1
TAP	47	288	5
TAP	47	312	2
STR	47	336	4
SCR	47	336	4	96	240	3
TAP	47	360	3
HLD	48	0	4	192
BRK	48	288	7
TAP	49	0	5
TAP	49	96	4
TAP	49	96	5
STR	49	192	6
SI_	49	192	6	96	48	3
BRK	49	288	0
BRK	49	288	6
STR	50	0	0
SI_	50	0	0	96	48	2
TAP	50	96	0
STR	50	96	7
SI_	50	96	7	96	48	5
STR	50	192	1
SI_	50	192	1	96	48	3
TAP	50	192	7
TAP	50	288	1
STR	50	288	6
SI_	50	288	6	96	48	4
STR	51	0	3
SI_	51	0	3	96	48	0
TAP	51	0	6
TAP	51	96	3
STR	51	96	4
SI_	51	96	4	96	48	7
STR	51	192	0
SF_	51	192	0	96	48	4
TAP	51	192	4
BRK	51	288	0
TAP	52	0	5
TAP	52	24	4
TAP	52	48	5
TAP	52	72	4
HLD	52	96	5	48
TAP	52	144	2
TAP	52	168	3
TAP	52	192	2
TAP	52	216	3
TAP	52	240	2
BRK	52	288	1
BRK	52	288	4
TAP	53	0	2
TAP	53	24	3
TAP	53	48	2
TAP	53	72	3
HLD	53	96	2	48
TAP	53	144	5
TAP	53	168	4
TAP	53	192	5
TAP	53	216	4
TAP	53	240	5
BRK	53	288	3
BRK	53	288	6
TAP	54	0	5
TAP	54	24	4
TAP	54	48	5
TAP	54	72	4
HLD	54	96	5	48
TAP	54	144	2
TAP	54	168	3
TAP	54	192	2
TAP	54	216	3
HLD	54	240	2	48
TAP	54	288	4
TAP	54	312	3
TAP	54	336	4
TAP	54	360	3
TAP	55	0	4
TAP	55	24	3
TAP	55	48	5
TAP	55	72	2
TAP	55	96	6
TAP	55	120	1
TAP	55	144	7
TAP	55	168	0
STR	55	192	0
SI_	55	192	0	96	48	3
STR	55	192	7
SI_	55	192	7	96	48	4
BRK	55	288	0
BRK	55	288	7
TAP	56	0	2
TAP	56	24	3
TAP	56	48	2
TAP	56	72	3
TAP	56	96	2
TAP	56	120	3
TAP	56	144	1
TAP	56	168	0
TAP	56	192	1
TAP	56	216	0
TAP	56	240	1
TAP	56	264	0
BRK	56	288	2
BRK	56	288	7
TAP	57	0	5
TAP	57	24	4
TAP	57	48	5
TAP	57	72	4
TAP	57	96	5
TAP	57	120	4
TAP	57	144	6
TAP	57	168	7
TAP	57	192	6
TAP	57	216	7
TAP	57	240	6
TAP	57	264	7
BRK	57	288	0
BRK	57	288	5
TAP	58	0	2
TAP	58	24	3
TAP	58	48	2
TAP	58	72	3
TAP	58	96	2
TAP	58	120	3
TAP	58	144	1
TAP	58	168	0
TAP	58	192	1
TAP	58	216	0
TAP	58	240	1
TAP	58	264	0
TAP	58	288	2
TAP	58	312	3
TAP	58	336	1
TAP	58	360	4
TAP	59	0	2
TAP	59	24	3
TAP	59	48	1
TAP	59	72	4
TAP	59	96	0
TAP	59	120	5
TAP	59	144	7
TAP	59	168	6
STR	59	192	6
SI_	59	192	6	96	48	2
STR	59	192	7
SI_	59	192	7	96	48	3
BRK	59	288	6
BRK	59	288	7
TAP	60	0	2
TAP	60	24	3
TAP	60	48	2
TAP	60	72	3
TAP	60	96	1
TAP	60	120	0
TAP	60	144	2
TAP	60	168	7
TAP	60	192	3
TAP	60	216	6
TAP	60	240	4
TAP	60	264	5
BRK	60	288	3
BRK	60	288	6
TAP	61	0	5
TAP	61	24	4
TAP	61	48	5
TAP	61	72	4
TAP	61	96	6
TAP	61	120	7
TAP	61	144	5
TAP	61	168	0
TAP	61	192	4
TAP	61	216	1
TAP	61	240	3
TAP	61	264	2
BRK	61	288	1
BRK	61	288	4
TAP	62	0	1
TAP	62	24	0
TAP	62	48	1
TAP	62	72	0
TAP	62	96	2
TAP	62	120	3
TAP	62	144	1
TAP	62	168	4
TAP	62	192	0
TAP	62	216	5
TAP	62	240	7
TAP	62	264	6
TAP	62	288	7
TAP	62	312	6
TAP	62	336	7
TAP	62	360	6
TAP	63	0	4
TAP	63	24	5
TAP	63	48	3
TAP	63	72	6
TAP	63	96	2
TAP	63	120	7
TAP	63	144	1
TAP	63	168	0
TAP	63	192	1
TAP	63	208	2
TAP	63	224	3
TAP	63	240	7
TAP	63	256	6
TAP	63	272	5
BRK	63	288	1
BRK	63	288	4
TAP	64	0	2
TAP	64	24	3
TAP	64	48	1
TAP	64	72	4
TAP	64	96	0
TAP	64	120	5
TAP	64	144	0
TAP	64	168	7
TAP	64	192	1
TAP	64	216	6
TAP	64	240	2
TAP	64	264	5
TAP	64	288	4
TAP	64	312	5
TAP	64	336	3
TAP	64	360	6
TAP	65	0	2
TAP	65	24	7
TAP	65	48	0
TAP	65	72	7
TAP	65	96	1
TAP	65	120	6
TAP	65	144	2
TAP	65	168	5
TAP	65	192	2
TAP	65	216	3
TAP	65	240	1
TAP	65	264	4
TAP	65	288	0
TAP	65	312	5
TAP	65	336	0
TAP	65	360	7
TAP	66	0	1
TAP	66	24	6
TAP	66	48	2
TAP	66	72	5
TAP	66	96	4
TAP	66	120	5
TAP	66	144	3
TAP	66	168	6
TAP	66	192	2
TAP	66	216	7
TAP	66	240	0
TAP	66	264	7
TAP	66	288	1
TAP	66	312	6
TAP	66	336	2
TAP	66	360	5
TAP	67	0	2
TAP	67	24	3
TAP	67	48	2
TAP	67	72	3
TAP	67	96	1
TAP	67	120	0
TAP	67	144	1
TAP	67	168	0
TAP	67	192	1
TAP	67	204	2
TAP	67	216	3
TAP	67	228	4
TAP	67	240	5
TAP	67	252	6
TAP	67	264	7
TAP	67	276	0
BRK	67	288	1
BRK	67	288	5
TAP	68	0	0
TAP	68	24	6
TAP	68	48	1
TAP	68	72	5
TAP	68	96	2
TAP	68	120	4
TAP	68	144	2
TAP	68	168	0
TAP	68	192	3
TAP	68	216	7
TAP	68	240	4
TAP	68	264	6
TAP	68	288	1
TAP	68	312	7
TAP	68	336	2
TAP	68	360	6
TAP	69	0	3
TAP	69	24	5
TAP	69	48	7
TAP	69	72	5
TAP	69	96	0
TAP	69	120	4
TAP	69	144	1
TAP	69	168	3
TAP	69	192	1
TAP	69	216	7
TAP	69	240	2
TAP	69	264	6
TAP	69	288	3
TAP	69	312	5
TAP	69	336	2
TAP	69	360	6
TAP	70	0	0
TAP	70	24	7
TAP	70	48	0
TAP	70	72	7
TAP	70	96	1
TAP	70	120	6
TAP	70	144	1
TAP	70	168	6
TAP	70	192	1
TAP	70	204	2
TAP	70	216	3
TAP	70	228	4
TAP	70	240	5
TAP	70	252	6
TAP	70	264	7
TAP	70	276	0
TAP	70	288	1
TAP	70	300	2
TAP	70	312	3
TAP	70	324	4
TAP	70	336	5
TAP	70	348	6
TAP	70	360	7
TAP	70	372	0
HLD	71	0	1	96
HLD	71	0	5	96
STR	71	192	2
SI_	71	192	2	96	48	7
STR	71	192	6
SI_	71	192	6	96	48	3
BRK	71	288	2
BRK	71	288	6
STR	72	0	0
SI_	72	0	0	96	48	4
STR	72	48	7
SI_	72	48	7	96	48	5
TAP	72	96	0
TAP	72	144	7
TAP	72	192	1
TAP	72	240	1
TAP	72	256	2
TAP	72	272	3
TAP	72	288	4
TAP	72	288	5
TAP	72	336	6
TAP	72	360	7
STR	73	0	6
SI_	73	0	6	96	48	4
TAP	73	48	1
STR	73	96	6
SI_	73	96	6	96	48	2
TAP	73	144	3
TAP	73	192	6
TAP	73	240	1
BRK	73	288	0
BRK	73	288	4
TAP	73	336	2
STR	74	0	7
SI_	74	0	7	96	48	3
STR	74	48	0
SI_	74	48	0	96	48	2
TAP	74	96	7
TAP	74	144	0
TAP	74	192	6
TAP	74	240	6
TAP	74	256	5
TAP	74	272	4
TAP	74	288	2
TAP	74	288	3
TAP	74	336	1
TAP	74	360	0
STR	75	0	1
SI_	75	0	1	96	48	3
TAP	75	48	6
STR	75	96	1
SI_	75	96	1	96	48	5
TAP	75	144	4
TAP	75	192	1
TAP	75	240	6
BRK	75	288	3
BRK	75	288	7
TAP	75	336	5
STR	76	0	1
SI_	76	0	1	96	48	3
STR	76	48	0
SI_	76	48	0	96	48	4
TAP	76	96	1
TAP	76	144	0
TAP	76	192	1
TAP	76	240	1
TAP	76	256	2
TAP	76	272	3
TAP	76	288	4
TAP	76	288	5
TAP	76	336	6
TAP	76	360	7
STR	77	0	6
SI_	77	0	6	96	48	4
TAP	77	48	1
STR	77	96	6
SI_	77	96	6	96	48	2
TAP	77	144	3
TAP	77	192	6
TAP	77	240	1
BRK	77	288	0
BRK	77	288	4
TAP	77	336	6
STR	78	0	7
SI_	78	0	7	96	48	3
STR	78	48	0
SI_	78	48	0	96	48	2
STR	78	96	7
SI_	78	96	7	96	48	5
TAP	78	144	0
TAP	78	192	7
TAP	78	240	0
TAP	78	256	1
TAP	78	272	2
TAP	78	288	3
TAP	78	288	6
TAP	78	336	7
STR	79	0	7
SI_	79	0	7	96	48	2
SI_	79	0	7	96	48	4
TAP	79	12	6
TAP	79	24	5
TAP	79	36	4
TAP	79	48	3
TAP	79	60	2
TAP	79	72	1
TAP	79	84	0
BRK	79	96	7
STR	79	192	3
SI_	79	192	3	96	48	0
STR	79	192	4
SI_	79	192	4	96	48	7
TAP	79	240	2
TAP	79	240	5
BRK	79	288	3
BRK	79	288	4
STR	80	0	0
SI_	80	0	0	96	48	6
STR	80	48	5
SI_	80	48	5	96	48	1
TAP	80	96	0
TAP	80	144	5
TAP	80	192	0
TAP	80	240	0
TAP	80	256	1
TAP	80	272	2
TAP	80	288	3
TAP	80	288	5
TAP	80	336	6
TAP	80	360	7
STR	81	0	6
SCR	81	0	6	96	48	1
TAP	81	48	2
STR	81	96	6
SI_	81	96	6	96	48	2
TAP	81	144	3
TAP	81	192	6
TAP	81	240	1
BRK	81	288	0
BRK	81	288	4
TAP	81	336	6
STR	82	0	7
SI_	82	0	7	96	48	1
STR	82	48	2
SI_	82	48	2	96	48	6
TAP	82	96	7
TAP	82	144	2
TAP	82	192	7
TAP	82	240	7
TAP	82	256	6
TAP	82	272	5
TAP	82	288	2
TAP	82	288	4
TAP	82	336	1
TAP	82	360	0
STR	83	0	1
SCL	83	0	1	96	48	6
TAP	83	48	5
STR	83	96	1
SI_	83	96	1	96	48	5
TAP	83	144	4
TAP	83	192	1
TAP	83	240	6
BRK	83	288	3
BRK	83	288	7
TAP	83	336	1
STR	84	0	0
SI_	84	0	0	96	48	4
STR	84	48	5
SI_	84	48	5	96	48	7
TAP	84	96	0
TAP	84	144	5
TAP	84	192	1
TAP	84	240	1
TAP	84	256	2
TAP	84	272	3
TAP	84	288	4
TAP	84	288	6
TAP	84	336	6
TAP	84	360	7
STR	85	0	6
SCR	85	0	6	96	48	1
TAP	85	48	2
STR	85	96	6
SI_	85	96	6	96	48	2
TAP	85	144	3
TAP	85	192	6
TAP	85	240	1
BRK	85	288	0
BRK	85	288	4
TAP	85	336	6
STR	86	0	7
SI_	86	0	7	96	48	4
STR	86	48	0
SI_	86	48	0	96	48	3
STR	86	96	7
SI_	86	96	7	96	48	3
STR	86	144	0
SI_	86	144	0	96	48	4
STR	86	192	7
SCL	86	192	7	96	48	4
TAP	86	240	0
TAP	86	288	7
TAP	86	336	0
TAP	87	0	5
BRK	87	24	4
BRK	87	24	6
TAP	87	72	2
BRK	87	96	1
BRK	87	96	3
TAP	87	144	0
TAP	87	144	7
BRK	87	168	1
BRK	87	168	6

T_REC_TAP	770
T_REC_BRK	61
T_REC_XTP	0
T_REC_HLD	26
T_REC_XHO	0
T_REC_STR	92
T_REC_BST	0
T_REC_XST	0
T_REC_TTP	0
T_REC_THO	0
T_REC_SLD	94
T_REC_ALL	1043
T_NUM_TAP	862
T_NUM_BRK	61
T_NUM_HLD	26
T_NUM_SLD	94
T_NUM_ALL	1043
T_JUDGE_TAP	923
T_JUDGE_HLD	47
T_JUDGE_SLD	94
T_JUDGE_ALL	1064
TTM_EACHPAIRS	139
TTM_SCR_TAP	431000
TTM_SCR_BRK	158600
TTM_SCR_HLD	26000
TTM_SCR_SLD	141000
TTM_SCR_ALL	756600
TTM_SCR_S	728000
TTM_SCR_SS	750500
TTM_RAT_ACV	10081

