VERSION	0.00.00	1.03.00
FES_MODE	0
BPM_DEF	161.000	161.000	161.000	161.000
MET_DEF	4	4
RESOLUTION	384
CLK_DEF	384
COMPATIBLE_CODE	MA2

BPM	0	0	161.000
MET	0	0	4	4

HLD	2	0	2	72
HLD	2	72	4	72
TAP	2	144	3
TAP	2	240	3
TAP	2	240	4
TAP	2	288	3
TAP	2	288	4
HLD	3	0	5	72
HLD	3	72	3	72
TAP	3	144	4
TAP	3	240	3
TAP	3	240	4
TAP	3	288	3
TAP	3	288	4
HLD	4	0	1	72
HLD	4	72	3	72
TAP	4	144	2
TAP	4	240	2
TAP	4	240	3
TAP	4	288	2
TAP	4	288	3
HLD	5	0	6	72
HLD	5	72	4	72
TAP	5	144	5
TAP	5	240	4
TAP	5	288	3
TAP	5	288	4
HLD	6	0	1	72
HLD	6	72	2	72
TAP	6	144	3
TAP	6	240	3
TAP	6	240	4
TAP	6	288	3
TAP	6	288	4
HLD	7	0	6	72
HLD	7	72	5	72
TAP	7	144	4
TAP	7	240	3
TAP	7	240	4
TAP	7	288	3
TAP	7	288	4
HLD	8	0	1	72
HLD	8	72	2	72
TAP	8	144	3
TAP	8	240	4
TAP	8	240	6
TAP	8	288	4
TAP	8	288	6
HLD	9	0	5	72
HLD	9	72	6	72
TAP	9	144	7
TAP	9	240	0
BRK	9	288	0
TAP	10	0	2
TAP	10	24	3
TAP	10	72	2
TAP	10	96	3
TAP	10	144	2
HLD	10	168	3	120
TAP	10	240	2
TAP	10	288	2
TAP	11	0	5
TAP	11	24	4
TAP	11	72	5
TAP	11	96	4
TAP	11	144	5
HLD	11	168	4	120
TAP	11	240	5
TAP	11	288	5
TAP	12	0	2
TAP	12	24	3
TAP	12	72	2
TAP	12	96	3
TAP	12	144	2
HLD	12	168	3	72
TAP	12	240	2
TAP	12	288	2
TAP	12	288	3
TAP	13	0	4
TAP	13	24	3
TAP	13	72	4
TAP	13	96	3
TAP	13	144	4
HLD	13	168	3	72
TAP	13	240	4
TAP	13	288	2
TAP	13	288	5
STR	14	0	2
SUR	14	0	2	96	192	4
TAP	14	0	3
TAP	15	0	4
STR	15	0	5
SUL	15	0	5	96	192	3
HLD	16	0	1	96
HLD	16	0	3	96
HLD	16	192	4	96
HLD	16	192	6	96
HLD	17	0	2	96
HLD	17	0	5	96
TAP	17	192	3
TAP	17	192	4
BRK	17	288	0
BRK	17	288	7
TAP	18	0	2
TAP	18	48	2
TAP	18	96	4
TAP	18	144	4
TAP	18	192	3
TAP	18	240	3
TAP	18	288	6
TAP	18	336	6
TAP	19	0	2
TAP	19	48	2
TAP	19	96	1
TAP	19	96	3
TAP	19	192	4
TAP	19	192	5
TAP	19	240	3
TAP	19	240	6
TAP	19	288	2
TAP	19	288	7
TAP	20	0	5
TAP	20	48	5
TAP	20	96	3
TAP	20	144	3
TAP	20	192	4
TAP	20	240	4
TAP	20	288	1
TAP	20	336	1
TAP	21	0	5
TAP	21	48	5
TAP	21	96	4
TAP	21	96	6
TAP	21	192	2
TAP	21	192	3
TAP	21	240	1
TAP	21	240	4
TAP	21	288	0
TAP	21	288	5
TAP	22	0	1
TAP	22	48	1
TAP	22	96	4
TAP	22	144	4
TAP	22	192	3
TAP	22	240	3
TAP	22	288	6
TAP	22	336	6
TAP	23	0	2
TAP	23	48	2
TAP	23	96	2
TAP	23	96	3
TAP	23	192	6
TAP	23	192	7
TAP	23	240	0
TAP	23	240	5
TAP	23	288	1
TAP	23	288	4
TAP	24	0	5
TAP	24	48	5
TAP	24	96	3
TAP	24	144	3
TAP	24	192	6
TAP	24	240	6
TAP	24	288	4
TAP	24	288	6
TAP	25	0	0
STR	25	0	7
SI_	25	0	7	96	48	3
BRK	25	192	1
BRK	25	192	5
TAP	25	288	3
TAP	26	0	1
TAP	26	48	1
TAP	26	96	4
TAP	26	144	4
TAP	26	192	2
TAP	26	240	2
TAP	26	288	6
TAP	26	336	6
TAP	27	0	4
TAP	27	48	4
TAP	27	96	3
STR	27	96	5
SI_	27	96	5	96	48	2
TAP	27	192	1
TAP	27	240	1
TAP	27	288	0
TAP	27	288	1
TAP	28	0	6
TAP	28	48	6
TAP	28	96	3
TAP	28	144	3
TAP	28	192	5
TAP	28	240	5
TAP	28	288	1
TAP	28	336	1
TAP	29	0	3
TAP	29	48	3
STR	29	96	2
SI_	29	96	2	96	48	7
TAP	29	96	4
TAP	29	192	6
TAP	29	240	6
TAP	29	288	0
TAP	29	288	6
TAP	30	0	1
TAP	30	48	1
TAP	30	96	4
TAP	30	144	4
TAP	30	192	3
TAP	30	240	3
TAP	30	288	6
TAP	30	336	6
TAP	31	0	1
TAP	31	48	1
TAP	31	96	0
STR	31	96	7
SI_	31	96	7	96	48	3
TAP	31	192	1
TAP	31	240	1
STR	31	288	1
SCL	31	288	1	96	192	4
TAP	31	288	4
TAP	32	288	1
TAP	32	288	6
TAP	33	0	2
TAP	33	24	3
TAP	33	72	5
TAP	33	96	4
TAP	33	144	2
TAP	33	168	3
TAP	33	240	1
TAP	33	240	4
TAP	33	288	1
TAP	33	288	4
HLD	34	0	2	72
HLD	34	72	3	72
TAP	34	144	1
HLD	34	192	5	72
HLD	34	264	4	72
TAP	34	336	6
HLD	35	0	2	72
HLD	35	72	3	72
TAP	35	144	1
TAP	35	192	1
TAP	35	192	3
TAP	35	288	3
TAP	35	288	4
HLD	36	0	5	72
HLD	36	72	4	72
TAP	36	144	6
HLD	36	192	2	72
HLD	36	264	3	72
TAP	36	336	1
TAP	37	0	1
TAP	37	0	3
TAP	37	96	2
TAP	37	96	4
TAP	37	144	2
TAP	37	144	4
TAP	37	240	3
TAP	37	240	6
TAP	37	288	3
TAP	37	288	6
HLD	38	0	5	72
TAP	38	72	4
TAP	38	144	3
TAP	38	144	6
TAP	38	192	3
STR	38	192	6
SI_	38	192	6	96	48	3
HLD	39	0	2	72
TAP	39	72	3
TAP	39	144	1
TAP	39	144	4
STR	39	192	1
SI_	39	192	1	96	48	4
TAP	39	192	4
TAP	40	0	6
TAP	40	48	6
TAP	40	96	4
TAP	40	192	1
TAP	40	240	1
TAP	40	288	3
HLD	41	0	1	72
HLD	41	72	0	72
TAP	41	144	2
HLD	41	192	6	72
HLD	41	264	7	72
TAP	41	336	5
HLD	42	0	1	72
HLD	42	72	0	72
TAP	42	144	2
TAP	42	192	0
TAP	42	192	2
TAP	42	288	3
TAP	42	288	4
HLD	43	0	1	72
HLD	43	72	2	72
TAP	43	144	3
HLD	43	192	6	72
HLD	43	264	5	72
TAP	43	336	4
TAP	44	0	3
TAP	44	0	4
TAP	44	96	1
TAP	44	96	3
TAP	44	144	1
TAP	44	144	3
TAP	44	240	6
TAP	44	240	7
TAP	44	288	6
TAP	44	288	7
STR	45	0	0
SUR	45	0	0	96	96	5
STR	45	0	1
SCR	45	0	1	96	96	4
TAP	45	288	0
TAP	45	288	7
STR	46	0	6
SCL	46	0	6	96	96	3
STR	46	0	7
SUL	46	0	7	96	96	2
TAP	46	288	0
TAP	46	288	7
TAP	47	0	2
TAP	47	0	3
TAP	47	96	4
TAP	47	96	5
TAP	47	192	0
TAP	47	192	7
TAP	47	240	0
TAP	47	240	7
TAP	47	288	0
TAP	47	288	7
HLD	48	0	1	192
STR	48	0	6
SCL	48	0	6	96	96	3
BRK	48	288	0
STR	49	0	1
SCR	49	0	1	96	96	4
HLD	49	0	6	192
BRK	49	288	7
TAP	50	0	6
TAP	50	96	4
TAP	50	96	5
TAP	50	192	1
TAP	50	288	2
TAP	50	288	3
TAP	51	0	7
TAP	51	96	4
TAP	51	96	6
TAP	51	192	2
TAP	51	192	4
BRK	51	288	0
TAP	52	0	6
TAP	52	48	6
TAP	52	96	3
TAP	52	144	3
TAP	52	192	4
TAP	52	192	6
BRK	52	288	0
TAP	53	0	1
TAP	53	48	1
TAP	53	96	4
TAP	53	144	4
TAP	53	192	1
TAP	53	192	3
BRK	53	288	7
TAP	54	0	6
TAP	54	48	6
TAP	54	96	4
TAP	54	144	4
TAP	54	192	3
TAP	54	240	3
TAP	54	288	1
TAP	54	336	1
STR	55	0	1
SLR	55	0	1	96	144	0
STR	55	0	6
SLL	55	0	6	96	144	7
BRK	55	288	1
BRK	55	288	6
TAP	56	0	2
TAP	56	0	3
TAP	56	48	2
TAP	56	96	0
TAP	56	96	1
TAP	56	144	0
TAP	56	192	7
TAP	56	240	6
BRK	56	288	0
BRK	56	288	5
TAP	57	0	4
TAP	57	0	5
TAP	57	48	5
TAP	57	96	6
TAP	57	96	7
TAP	57	144	7
TAP	57	192	0
TAP	57	240	1
BRK	57	288	2
BRK	57	288	7
TAP	58	0	0
TAP	58	0	1
TAP	58	48	1
TAP	58	96	0
TAP	58	96	1
TAP	58	192	4
TAP	58	192	6
TAP	58	240	6
TAP	58	288	4
TAP	58	288	6
STR	59	0	0
SI_	59	0	0	96	48	4
STR	59	96	7
SI_	59	96	7	96	48	3
TAP	59	192	0
BRK	59	288	2
BRK	59	288	5
TAP	60	0	4
TAP	60	0	5
TAP	60	48	5
TAP	60	96	6
TAP	60	96	7
TAP	60	144	7
TAP	60	192	0
TAP	60	240	1
BRK	60	288	2
BRK	60	288	7
TAP	61	0	2
TAP	61	0	3
TAP	61	48	2
TAP	61	96	0
TAP	61	96	1
TAP	61	144	0
TAP	61	192	7
TAP	61	240	6
BRK	61	288	0
BRK	61	288	5
TAP	62	0	6
TAP	62	0	7
TAP	62	48	6
TAP	62	96	6
TAP	62	96	7
TAP	62	192	1
TAP	62	192	3
TAP	62	240	1
TAP	62	288	1
TAP	62	288	3
STR	63	0	0
SI_	63	0	0	96	48	3
STR	63	0	7
SI_	63	0	7	96	48	4
TAP	63	192	2
TAP	63	192	5
BRK	63	288	0
BRK	63	288	7
TAP	64	0	3
TAP	64	0	4
TAP	64	48	2
TAP	64	96	0
TAP	64	96	1
TAP	64	144	0
TAP	64	144	1
TAP	64	192	7
TAP	64	240	6
BRK	64	288	0
BRK	64	288	5
TAP	65	0	3
TAP	65	0	4
TAP	65	48	5
TAP	65	96	6
TAP	65	96	7
TAP	65	144	6
TAP	65	144	7
TAP	65	192	0
TAP	65	240	1
BRK	65	288	2
BRK	65	288	7
TAP	66	0	0
TAP	66	0	1
TAP	66	48	1
TAP	66	96	1
TAP	66	96	3
TAP	66	192	4
TAP	66	192	5
TAP	66	240	5
TAP	66	288	5
TAP	66	288	7
STR	67	0	0
SI_	67	0	0	96	48	4
STR	67	96	6
SI_	67	96	6	96	48	2
TAP	67	192	1
BRK	67	288	1
BRK	67	288	7
STR	68	0	6
SI_	68	0	6	96	48	3
TAP	68	48	6
STR	68	96	2
SI_	68	96	2	96	48	7
TAP	68	144	2
TAP	68	192	6
BRK	68	288	0
BRK	68	288	5
STR	69	0	1
SI_	69	0	1	96	48	4
TAP	69	48	1
STR	69	96	5
SI_	69	96	5	96	48	0
TAP	69	144	5
TAP	69	192	1
BRK	69	288	2
BRK	69	288	7
TAP	70	0	1
TAP	70	48	1
TAP	70	96	6
TAP	70	144	6
TAP	70	192	0
TAP	70	216	7
TAP	70	240	0
TAP	70	264	7
TAP	70	288	0
TAP	70	312	7
TAP	70	336	0
BRK	71	0	1
BRK	71	0	6
TAP	71	192	2
STR	71	192	3
SI_	71	192	3	96	48	7
BRK	71	288	0
TAP	72	0	1
TAP	72	48	1
TAP	72	96	7
TAP	72	144	7
TAP	72	192	2
TAP	72	240	2
HLD	72	288	2	96
TAP	72	288	3
HLD	73	0	5	96
TAP	73	96	4
TAP	73	192	6
TAP	73	192	7
TAP	73	240	0
TAP	73	240	5
TAP	73	288	1
TAP	73	288	4
TAP	74	0	7
TAP	74	48	7
TAP	74	96	0
TAP	74	144	0
TAP	74	192	6
TAP	74	240	6
TAP	74	288	4
HLD	74	288	5	96
HLD	75	0	2	96
TAP	75	96	3
TAP	75	192	0
TAP	75	192	1
TAP	75	240	2
TAP	75	240	7
TAP	75	288	3
TAP	75	288	6
TAP	76	0	5
TAP	76	48	5
TAP	76	96	3
TAP	76	144	3
TAP	76	192	6
TAP	76	240	6
HLD	76	288	6	96
TAP	76	288	7
HLD	77	0	1	96
TAP	77	96	0
TAP	77	192	2
TAP	77	192	7
TAP	77	240	3
TAP	77	240	6
TAP	77	288	4
TAP	77	288	5
TAP	78	0	6
TAP	78	48	6
TAP	78	96	2
TAP	78	144	2
TAP	78	192	1
TAP	78	192	3
STR	78	288	3
SI_	78	288	3	96	48	0
STR	78	288	4
SI_	78	288	4	96	48	7
BRK	79	96	1
BRK	79	96	6
TAP	79	192	0
TAP	79	192	7
TAP	79	240	1
TAP	79	240	6
BRK	79	288	2
BRK	79	288	5
TAP	80	0	2
TAP	80	48	2
TAP	80	96	6
TAP	80	144	6
STR	80	192	1
SI_	80	192	1	96	48	4
TAP	80	288	5
TAP	80	336	5
TAP	81	0	3
TAP	81	0	5
TAP	81	96	1
TAP	81	96	3
TAP	81	192	0
TAP	81	192	1
TAP	81	240	2
TAP	81	240	7
TAP	81	288	3
TAP	81	288	6
TAP	82	0	5
TAP	82	48	5
TAP	82	96	1
TAP	82	144	1
STR	82	192	6
SI_	82	192	6	96	48	3
TAP	82	288	2
TAP	82	336	2
TAP	83	0	2
TAP	83	0	4
TAP	83	96	4
TAP	83	96	6
TAP	83	192	6
TAP	83	192	7
TAP	83	240	0
TAP	83	240	5
TAP	83	288	1
TAP	83	288	4
TAP	84	0	1
TAP	84	48	1
TAP	84	96	5
TAP	84	144	5
STR	84	192	2
SI_	84	192	2	96	48	7
TAP	84	288	6
TAP	84	336	6
TAP	85	0	0
TAP	85	0	6
TAP	85	96	2
TAP	85	96	3
TAP	85	192	1
TAP	85	192	7
TAP	85	240	2
TAP	85	240	6
TAP	85	288	3
STR	85	288	5
SCR	85	288	5	96	192	2
TAP	86	0	2
TAP	86	288	1
TAP	86	288	6
TAP	87	0	2
BRK	87	24	3
TAP	87	72	5
BRK	87	96	4
TAP	87	144	0
BRK	87	168	7

T_REC_TAP	494
T_REC_BRK	44
T_REC_XTP	0
T_REC_HLD	56
T_REC_XHO	0
T_REC_STR	34
T_REC_BST	0
T_REC_XST	0
T_REC_TTP	0
T_REC_THO	0
T_REC_SLD	34
T_REC_ALL	662
T_NUM_TAP	528
T_NUM_BRK	44
T_NUM_HLD	56
T_NUM_SLD	34
T_NUM_ALL	662
T_JUDGE_TAP	572
T_JUDGE_HLD	118
T_JUDGE_SLD	34
T_JUDGE_ALL	724
TTM_EACHPAIRS	158
TTM_SCR_TAP	264000
TTM_SCR_BRK	114400
TTM_SCR_HLD	56000
TTM_SCR_SLD	51000
TTM_SCR_ALL	485400
TTM_SCR_S	466600
TTM_SCR_SS	481000
TTM_RAT_ACV	10091

