VERSION	0.00.00	1.03.00
FES_MODE	0
BPM_DEF	161.000	161.000	161.000	161.000
MET_DEF	4	4
RESOLUTION	384
CLK_DEF	384
COMPATIBLE_CODE	MA2

BPM	0	0	161.000

HLD	2	0	2	192
HLD	2	0	4	192
HLD	3	0	3	192
HLD	3	0	5	192
HLD	4	0	2	192
HLD	4	0	4	192
HLD	5	0	3	96
HLD	5	0	5	96
TAP	5	192	2
TAP	5	192	4
TAP	5	288	3
TAP	5	288	5
HLD	6	0	1	192
HLD	6	0	4	192
HLD	7	0	3	192
HLD	7	0	6	192
HLD	8	0	1	192
HLD	8	0	4	192
HLD	9	0	3	96
HLD	9	0	6	96
TAP	9	192	4
TAP	9	192	5
TAP	9	288	3
TAP	9	288	4
TAP	10	0	2
TAP	10	96	2
TAP	10	192	2
TAP	10	192	3
TAP	10	288	2
TAP	10	288	3
TAP	11	0	2
TAP	11	96	2
TAP	11	192	2
TAP	11	192	3
TAP	11	288	1
TAP	11	288	4
TAP	12	0	5
TAP	12	96	5
TAP	12	192	4
TAP	12	192	5
TAP	12	288	4
TAP	12	288	5
TAP	13	0	5
TAP	13	96	5
TAP	13	192	4
TAP	13	192	5
TAP	13	288	4
TAP	13	288	5
STR	14	0	3
SI_	14	0	3	96	144	0
STR	15	0	7
SI_	15	0	7	96	144	4
STR	16	0	3
SI_	16	0	3	96	144	0
HLD	17	0	7	192
BRK	17	192	0
TAP	18	0	6
TAP	18	96	6
TAP	18	192	4
TAP	18	192	5
TAP	18	288	2
TAP	19	0	2
TAP	19	0	3
TAP	19	96	1
TAP	19	192	0
TAP	19	288	0
TAP	19	288	7
TAP	20	0	1
TAP	20	96	1
TAP	20	192	2
TAP	20	192	3
TAP	20	288	5
TAP	21	0	4
TAP	21	0	5
TAP	21	96	6
TAP	21	192	7
TAP	21	288	0
TAP	21	288	7
TAP	22	0	1
TAP	22	96	1
TAP	22	192	2
TAP	22	192	3
TAP	22	288	5
TAP	23	0	4
TAP	23	0	5
TAP	23	96	6
TAP	23	192	7
TAP	23	288	0
TAP	23	288	7
TAP	24	0	6
TAP	24	96	6
TAP	24	192	4
TAP	24	192	5
TAP	24	288	2
TAP	25	0	2
TAP	25	0	3
TAP	25	96	1
TAP	25	192	0
TAP	25	288	0
TAP	25	288	7
TAP	26	0	1
HLD	26	96	2	96
TAP	26	192	3
TAP	26	288	4
HLD	27	0	5	96
TAP	27	96	4
TAP	27	192	6
TAP	27	288	0
TAP	27	288	7
TAP	28	0	6
HLD	28	96	5	96
TAP	28	192	4
TAP	28	288	3
HLD	29	0	2	96
TAP	29	96	3
TAP	29	192	1
TAP	29	288	0
TAP	29	288	7
TAP	30	0	1
HLD	30	96	2	96
TAP	30	192	3
TAP	30	288	4
HLD	31	0	5	96
TAP	31	96	4
TAP	31	192	6
TAP	31	288	0
TAP	31	288	7
TAP	32	0	1
TAP	32	0	6
TAP	32	96	2
TAP	32	96	5
TAP	32	192	3
TAP	32	192	4
STR	32	288	3
SI_	32	288	3	96	192	0
STR	32	288	4
SI_	32	288	4	96	192	7
TAP	34	0	7
TAP	34	96	6
TAP	34	192	5
TAP	34	288	4
TAP	34	288	6
TAP	35	0	3
TAP	35	96	2
TAP	35	192	1
TAP	35	288	0
TAP	35	288	2
TAP	36	0	7
TAP	36	96	6
TAP	36	192	5
STR	36	288	4
SI_	36	288	4	96	192	0
HLD	38	0	1	192
TAP	38	192	0
HLD	39	0	2	192
TAP	39	192	3
TAP	40	0	4
TAP	40	96	5
TAP	40	192	6
TAP	40	288	7
TAP	41	0	0
TAP	41	96	1
TAP	41	192	2
TAP	41	288	1
TAP	41	288	3
TAP	42	0	4
TAP	42	96	5
TAP	42	192	6
TAP	42	288	5
TAP	42	288	7
TAP	43	0	0
TAP	43	96	1
TAP	43	192	2
STR	43	288	3
SI_	43	288	3	96	192	7
HLD	45	0	6	192
TAP	45	192	7
HLD	46	0	5	192
TAP	46	192	4
TAP	47	0	3
TAP	47	96	3
TAP	47	192	4
TAP	47	288	2
TAP	47	288	5
HLD	48	0	2	288
HLD	48	0	5	288
TAP	49	0	4
TAP	49	96	4
TAP	49	192	4
TAP	49	288	3
TAP	49	288	4
TAP	50	0	3
TAP	50	96	3
TAP	50	192	3
TAP	50	288	3
TAP	50	288	4
TAP	51	0	4
TAP	51	96	5
TAP	51	192	6
TAP	51	288	0
TAP	51	288	7
TAP	52	0	6
TAP	52	48	6
TAP	52	96	6
TAP	52	96	7
TAP	52	192	5
TAP	52	240	5
TAP	52	288	4
TAP	52	288	5
TAP	53	0	2
TAP	53	48	2
TAP	53	96	2
TAP	53	96	3
TAP	53	192	1
TAP	53	240	1
TAP	53	288	0
TAP	53	288	1
TAP	54	0	7
TAP	54	48	7
TAP	54	96	7
TAP	54	192	0
TAP	54	240	0
TAP	54	288	0
HLD	55	0	7	192
BRK	55	288	7
TAP	56	0	0
TAP	56	48	0
TAP	56	96	1
TAP	56	96	7
TAP	56	192	5
TAP	56	240	5
TAP	56	288	4
TAP	56	288	6
TAP	57	0	7
TAP	57	48	7
TAP	57	96	0
TAP	57	96	6
TAP	57	192	2
TAP	57	240	2
TAP	57	288	1
TAP	57	288	3
TAP	58	0	0
TAP	58	48	0
TAP	58	96	1
TAP	58	96	7
TAP	58	192	5
TAP	58	240	5
TAP	58	288	4
TAP	58	288	6
TAP	59	0	6
TAP	59	0	7
TAP	59	96	0
TAP	59	96	1
TAP	59	192	2
TAP	59	192	3
TAP	59	288	4
TAP	59	288	5
TAP	60	0	3
TAP	60	48	3
TAP	60	96	2
TAP	60	96	4
TAP	60	192	6
TAP	60	240	6
TAP	60	288	5
TAP	60	288	7
TAP	61	0	4
TAP	61	48	4
TAP	61	96	3
TAP	61	96	5
TAP	61	192	1
TAP	61	240	1
TAP	61	288	0
TAP	61	288	2
TAP	62	0	3
TAP	62	48	3
TAP	62	96	2
TAP	62	96	4
TAP	62	192	6
TAP	62	240	6
TAP	62	288	5
TAP	62	288	7
TAP	63	0	4
TAP	63	0	5
TAP	63	96	2
TAP	63	96	3
TAP	63	192	0
TAP	63	192	1
TAP	63	288	6
TAP	63	288	7
TAP	64	0	5
TAP	64	48	5
TAP	64	96	3
TAP	64	144	3
TAP	64	192	4
TAP	64	240	4
TAP	64	288	3
TAP	64	288	5
TAP	65	0	2
TAP	65	48	2
TAP	65	96	4
TAP	65	144	4
TAP	65	192	3
TAP	65	240	3
TAP	65	288	2
TAP	65	288	4
TAP	66	0	1
TAP	66	48	1
TAP	66	96	7
TAP	66	144	7
TAP	66	192	0
TAP	66	240	0
TAP	66	288	1
TAP	66	288	7
TAP	67	0	6
TAP	67	48	6
TAP	67	96	0
TAP	67	144	0
TAP	67	192	7
TAP	67	240	7
TAP	67	288	0
TAP	67	288	6
TAP	68	0	5
TAP	68	48	5
TAP	68	96	3
TAP	68	144	3
TAP	68	192	4
TAP	68	240	4
TAP	68	288	3
TAP	68	288	5
TAP	69	0	2
TAP	69	48	2
TAP	69	96	4
TAP	69	144	4
TAP	69	192	3
TAP	69	240	3
TAP	69	288	2
TAP	69	288	4
TAP	70	0	1
TAP	70	48	1
TAP	70	96	7
TAP	70	144	7
TAP	70	192	0
TAP	70	240	0
STR	70	288	1
SI_	70	288	1	96	192	5
TAP	70	288	7
BRK	71	288	7
TAP	72	0	6
TAP	72	48	6
TAP	72	96	6
TAP	72	192	4
TAP	72	192	5
TAP	72	288	2
TAP	72	336	2
TAP	73	0	2
TAP	73	0	3
TAP	73	96	1
TAP	73	192	0
TAP	73	240	0
TAP	73	288	0
TAP	73	288	7
TAP	74	0	1
TAP	74	48	1
TAP	74	96	1
TAP	74	192	2
TAP	74	192	3
TAP	74	288	5
TAP	74	336	5
TAP	75	0	4
TAP	75	0	5
TAP	75	96	6
TAP	75	192	7
TAP	75	240	7
TAP	75	288	0
TAP	75	288	7
TAP	76	0	1
TAP	76	48	1
TAP	76	96	1
TAP	76	192	2
TAP	76	192	3
TAP	76	288	5
TAP	76	336	5
TAP	77	0	4
TAP	77	0	5
TAP	77	96	6
TAP	77	192	7
TAP	77	240	7
TAP	77	288	0
TAP	77	288	7
TAP	78	0	6
TAP	78	48	6
TAP	78	96	6
TAP	78	192	4
TAP	78	192	5
TAP	78	288	2
TAP	78	336	2
TAP	79	0	2
TAP	79	0	3
TAP	79	96	1
TAP	79	192	0
TAP	79	240	0
TAP	79	288	0
TAP	79	288	7
TAP	80	0	1
TAP	80	48	1
HLD	80	96	2	96
TAP	80	192	3
TAP	80	288	4
TAP	80	336	4
HLD	81	0	5	96
TAP	81	96	4
TAP	81	192	6
TAP	81	240	6
TAP	81	288	0
TAP	81	288	7
TAP	82	0	6
TAP	82	48	6
HLD	82	96	5	96
TAP	82	192	4
TAP	82	288	3
TAP	82	336	3
HLD	83	0	2	96
TAP	83	96	3
TAP	83	192	1
TAP	83	240	1
TAP	83	288	0
TAP	83	288	7
TAP	84	0	1
TAP	84	48	1
HLD	84	96	2	96
TAP	84	192	3
TAP	84	288	4
TAP	84	336	4
HLD	85	0	5	96
TAP	85	96	4
TAP	85	192	6
TAP	85	240	6
TAP	85	288	0
TAP	85	288	7
TAP	86	0	6
TAP	86	48	6
TAP	86	96	5
TAP	86	192	3
TAP	86	192	4
STR	86	288	3
SI_	86	288	3	96	192	0
STR	86	288	4
SI_	86	288	4	96	192	7

T_REC_TAP	389
T_REC_BRK	3
T_REC_XTP	0
T_REC_HLD	36
T_REC_XHO	0
T_REC_STR	10
T_REC_BST	0
T_REC_XST	0
T_REC_TTP	0
T_REC_THO	0
T_REC_SLD	10
T_REC_ALL	448
T_NUM_TAP	399
T_NUM_BRK	3
T_NUM_HLD	36
T_NUM_SLD	10
T_NUM_ALL	448
T_JUDGE_TAP	402
T_JUDGE_HLD	116
T_JUDGE_SLD	10
T_JUDGE_ALL	528
TTM_EACHPAIRS	96
TTM_SCR_TAP	199500
TTM_SCR_BRK	7800
TTM_SCR_HLD	36000
TTM_SCR_SLD	15000
TTM_SCR_ALL	258300
TTM_SCR_S	250300
TTM_SCR_SS	258000
TTM_RAT_ACV	10011

